Коллекторы / Pay Day / The Debt Collector (Джесси Джонсон / Jesse Johnson) [2018, Великобритания, США, боевик, HDRip] Dub (iTunes)

Ответить на тему
 
Автор Сообщение

torrentc.info

Создавать темы 08-Окт-2018 18:57

[Цитировать]

Коллекторы / Pay Day / The Debt Collector
Страна: Великобритания, США
Жанр: боевик
Год выхода: 2018
Продолжительность: 01:35:55
Перевод: Профессиональный (дублированный) iTunes
Субтитры: нет
Режиссер: Джесси Джонсон / Jesse Johnson
В ролях: Скотт Эдкинс
Луис Мэндилор
Владимир Кулих
Тони Тодд
Селина Ло
Рустик Бодомов
Алекса Бондарь
Rachel Brann
Kasmira Buchanan
Danice Cabanela
Описание: Небольшая бойцовская школа, которой управляет мастер боевых искусств по имени Фрэнч, переживает не лучшие времена. Чтобы решить материальные проблемы, Фрэнч на время оставляет спортивную карьеру и нанимается коллектором к криминальному авторитету Большому Томми. Такая работа ему по плечу и по нраву, и он с напарником с азартом метелит должников босса. Пока крутой гангстер из Лос-Анджелеса не поручает им найти любовника его жены, и парни сталкиваются с проблемой, которую дракой не решить…
Доп. информация: https://www.kinopoisk.ru/film/kollektory-2018-1049730/
Сэмпл: http://sendfile.su/1447018
Качество видео: HDRip найден в сети
Формат файла: AVI
Видео: 720x304 (2.37:1), 23.976 fps, XviD build 73 ~1722 kbps avg, 0.33 bit/pixel
Аудио: 48 kHz, AC3 Dolby Digital, 3/2 (L,C,R,l,r) + LFE ch, ~384 kbps

MediaInfo

GeneralComplete name : S:\The.Debt.Collector.2018.BDRip.1.41Gb..aviFormat : AVIFormat/Info : Audio Video InterleaveFile size : 1.42 GiBDuration : 1h 35mnOverall bit rate : 2 116 KbpsWriting application : VirtualDubMod 1.5.10.3 | www.virtualdub-fr.org || (build 2550/release)Writing library : VirtualDubMod build 2550/release
VideoID : 0Format : MPEG-4 VisualFormat profile : Advanced Simple@L5Format settings, BVOP : 1Format settings, QPel : NoFormat settings, GMC : No warppointsFormat settings, Matrix : CustomCodec ID : XVIDCodec ID/Hint : XviDDuration : 1h 35mnBit rate : 1 723 KbpsWidth : 720 pixelsHeight : 304 pixelsDisplay aspect ratio : 2.35:1Frame rate : 23.976 fpsColor space : YUVChroma subsampling : 4:2:0Bit depth : 8 bitsScan type : ProgressiveCompression mode : LossyBits/(Pixel*Frame) : 0.328Stream size : 1.15 GiB (81%)Writing library : XviD 73
AudioID : 1Format : AC-3Format/Info : Audio Coding 3Mode extension : CM (complete main)Format settings, Endianness : BigCodec ID : 2000Duration : 1h 35mnBit rate mode : ConstantBit rate : 384 KbpsChannel(s) : 6 channelsChannel positions : Front: L C R, Side: L R, LFESampling rate : 48.0 KHzCompression mode : LossyStream size : 263 MiB (18%)Alignment : Split accross interleavesInterleave, duration : 42 ms (1.00 video frame)Interleave, preload duratio : 500 ms

Скриншот c названием фильма

[Профиль]    [ЛС]
Показать сообщения:    
Ответить на тему

Текущее время: Сегодня 04:24

Часовой пояс: GMT + 7



Вы не можете начинать темы
Вы не можете отвечать на сообщения
Вы не можете редактировать свои сообщения
Вы не можете удалять свои сообщения
Вы не можете голосовать в опросах
Вы не можете прикреплять файлы к сообщениям
Вы не можете скачивать файлы