Не оставляй следов / Leave No Trace (Дебра Граник / Debra Granik) [2018, США, драма, BDRip] MVO (HDRezka Studio) + Original (Eng) + Sub (Rus, Eng)

Ответить на тему
 
Автор Сообщение

torrentc.info

Создавать темы 08-Окт-2018 00:49

[Цитировать]

Не оставляй следов / Leave No Trace- Год выхода: 2018
Выпущено: США / BRON Studios
Жанр: драма
Продолжительность: 01:49:08
Перевод: Любительский (многоголосый закадровый) HDRezka Studio
Субтитры: Русские (полные - Focs), Английские (полные) (внешние *.srt)
Оригинальная аудиодорожка: Английская-Режиссер:
Дебра Граник / Debra Granik-В ролях:
Томасин МакКензи, Бен Фостер, Джеффри Риффлард, Майкл Дрэйпер, Дерек Джон Дрешер, Питер Симпсон, Эрик МакГлотлин, Дэна Милликэн, Райан Столяр-О фильме:
Уилл и Том — отец и дочь, которые живут в лесопарке, добровольно изолировав себя от общества. Уилл считает, что лучше пить дождевую воду и питаться дарами природы, лишь изредка предпринимая краткосрочные вылазки в город, чем жить среди людей. Но по закону бездомным быть дозволяется, а жить на общественной земле — нет. После того, как рейнджеры и соцработники обнаруживают нелегальных Робинзонов, Уиллу и Том приходится покинуть насиженное место.-
| | IMDB | КиноПоиск | Сэмпл |-Качество: BDRip [Leave.No.Trace.2018.LIMITED.COMPLETE.BLURAY-CBGB]
Формат файла: AVI
Видео: 720x384 (1.88:1), 23.976 fps, XviD build 67 ~1518 kbps avg, 0.23 bit/pixel
Аудио #1: 48 kHz, AC3 Dolby Digital, 2/0 (L,R) ch, ~192 kbps avg (RUS)
Аудио #2: 48 kHz, AC3 Dolby Digital, 2/0 (L,R) ch, ~192 kbps avg (ENG)-
[img]https://i1.imageban.ru/thumbs/2018.10.07/726e38e4b86e391a4710ed1f4bdfc40f.jpg[/img]-[img]https://i3.imageban.ru/thumbs/2018.10.07/192a2709c5b2a22cfc7659ea3456faee.jpg[/img][img]https://i2.imageban.ru/thumbs/2018.10.07/f3427f494fa1e7258ad54e6a94a0168b.jpg[/img][img]https://i6.imageban.ru/thumbs/2018.10.07/426743d97228346583095d9d9062c715.jpg[/img][img]https://i1.imageban.ru/thumbs/2018.10.07/5a06402e29fbfc029eb217d55b36e1a6.jpg[/img]MediaInfo">

Скриншоты[img]https://i1.imageban.ru/thumbs/2018.10.07/726e38e4b86e391a4710ed1f4bdfc40f.jpg[/img]-[img]https://i3.imageban.ru/thumbs/2018.10.07/192a2709c5b2a22cfc7659ea3456faee.jpg[/img][img]https://i2.imageban.ru/thumbs/2018.10.07/f3427f494fa1e7258ad54e6a94a0168b.jpg[/img][img]https://i6.imageban.ru/thumbs/2018.10.07/426743d97228346583095d9d9062c715.jpg[/img][img]https://i1.imageban.ru/thumbs/2018.10.07/5a06402e29fbfc029eb217d55b36e1a6.jpg[/img]MediaInfo

Общее
Полное имя                               : D:\Ne_ostavlyai_sledov_2018_BDRip_MVO_by_Dalemake.avi
Формат файла                                   : AVI
Формат файла/Информация                        : Audio Video Interleave
Размер файла                             : 1,46 Гбайт
Продолжительность                        : 1 ч. 49 м.
Общий поток                              : 1917 Кбит/сек
Программа кодирования                    : VirtualDubMod 1.5.10.3 | www.virtualdub-fr.org || (build 2550/release)
Библиотека кодирования                   : VirtualDubMod build 2550/release
Видео
Идентификатор                            : 0
Формат файла                                   : MPEG-4 Visual
Профиль формата                          : Advanced Simple@L5
Параметр BVOP формата                    : 1
Параметр QPel формата                    : Нет
Параметр GMC формата                     : Без точки перехода
Параметр матрицы формата                 : Выборочная
Идентификатор кодека                     : XVID
Идентификатор кодека/Подсказка           : XviD
Продолжительность                        : 1 ч. 49 м.
Битрейт                                  : 1519 Кбит/сек
Ширина                                   : 720 пикселей
Высота                                   : 384 пикселя
Соотношение сторон                       : 1,85:1
Частота кадров                           : 23,976 кадра/сек
Цветовое пространство                    : YUV
Субдискретизация насыщенности            : 4:2:0
Битовая глубина                          : 8 бит
Тип развёртки                            : Прогрессивная
Метод сжатия                             : С потерями
Бит/(Пиксели*Кадры)                      : 0.229
Размер потока                            : 1,16 Гбайт (79%)
Библиотека кодирования                   : XviD 67
Аудио #1
Идентификатор                            : 1
Формат файла                                   : AC-3
Формат файла/Информация                        : Audio Coding 3
Расширение режима                        : CM (complete main)
Параметр Endianness формата              : Big
Идентификатор кодека                     : 2000
Продолжительность                        : 1 ч. 49 м.
Вид битрейта                             : Постоянный
Битрейт                                  : 192 Кбит/сек
Каналы                                   : 2 канала
Расположение каналов                     : Front: L R
Частота                                  : 48,0 КГц
Битовая глубина                          : 16 бит
Метод сжатия                             : С потерями
Размер потока                            : 150 Мбайт (10%)
Выравнивание                             : Разделение по промежуткам
Продолжительность промежутка             : 42  мс. (1,00 видеокадр)
Время предзагрузки промежутка            : 500  мс.
Аудио #2
Идентификатор                            : 2
Формат файла                                   : AC-3
Формат файла/Информация                        : Audio Coding 3
Расширение режима                        : CM (complete main)
Параметр Endianness формата              : Big
Идентификатор кодека                     : 2000
Продолжительность                        : 1 ч. 49 м.
Вид битрейта                             : Постоянный
Битрейт                                  : 192 Кбит/сек
Каналы                                   : 2 канала
Расположение каналов                     : Front: L R
Частота                                  : 48,0 КГц
Битовая глубина                          : 16 бит
Метод сжатия                             : С потерями
Размер потока                            : 150 Мбайт (10%)
Выравнивание                             : Разделение по промежуткам
Продолжительность промежутка             : 42  мс. (1,00 видеокадр)
Время предзагрузки промежутка            : 500  мс.
-
[Профиль]    [ЛС]
Показать сообщения:    
Ответить на тему

Текущее время: Сегодня 21:34

Часовой пояс: GMT + 7



Вы не можете начинать темы
Вы не можете отвечать на сообщения
Вы не можете редактировать свои сообщения
Вы не можете удалять свои сообщения
Вы не можете голосовать в опросах
Вы не можете прикреплять файлы к сообщениям
Вы не можете скачивать файлы