Хот-Дог / Hot Dog (Торстен Кюнстлер / Torsten Kunstler) [2018, Германия, боевик, комедия, BDRip] Dub (iTunes) + Sub (Rus, Eng, Ger) + Original Ger

Ответить на тему
 
Автор Сообщение

torrentc.info

Создавать темы 07-Окт-2018 20:08

[Цитировать]

Хот-Дог / Hot Dog
[img=right]https://i6.imageban.ru/out/2018/10/04/8927c609ab859...452bb8.png[/img]
Страна: Германия
Жанр: боевик, комедия
Год выхода: 2018
Продолжительность: 01:45:31-Перевод: Профессиональный (дублированный) | iTunes
Субтитры: русские, английские, немецкие
Оригинальная аудиодорожка: немецкий-Режиссер: Торстен Кюнстлер / Torsten Kunstler-В ролях: Тиль Швайгер, Маттиас Швайгхёфер, Энн Шефер, Лиза Томашевски, Йоахим Пауль Ассбёк, Давид Брюкнер, Симсон Баббл, Томас Фелен, Хайно Ферх, Самуэль Финци и др.-Описание: Могут ли сработаться оперативник-бунтарь, презирающий глупые приказы начальства и молодой полицейский-формалист, у которого на каждый шаг в голове есть инструкция? На глазах у этой парочки похищают дочь президента одной из восточно-европейских стран, и теперь, чтобы отстоять свою честь, они должны вернуть похищенную. Вот только разница в их подходах к работе грозит перевернуть с ног наголову любое дело, за которое они берутся.-Качество видео: BDRip | Hot.Dog.2018.BDRemux.TeamHD
Формат файла: AVI
Видео: 720x304 (2.37:1), 23.976 fps, XviD build 73 ~2116 kbps avg, 0.40 bit/pixel
Аудио: 48 kHz, AC3 Dolby Digital, 3/2 (L,C,R,l,r) + LFE ch, ~384 kbps | RUS
Аудио: 48 kHz, AC3 Dolby Digital, 3/2 (L,C,R,l,r) + LFE ch, ~448 kbps | GER-

Сэмпл-

MediaInfo

Формат файла                                   : AVI
Формат файла/Информация                        : Audio Video Interleave
Профиль формата                          : OpenDML
Размер файла                             : 2,18 Гбайт
Продолжительность                        : 1 ч. 45 м.
Общий поток                              : 2955 Кбит/сек
Программа кодирования                    : VirtualDubMod 1.5.10.3 | www.virtualdub-fr.org || (build 2550/release)
Библиотека кодирования                   : VirtualDubMod build 2550/release
Видео
Идентификатор                            : 0
Формат файла                                   : MPEG-4 Visual
Профиль формата                          : Advanced Simple@L5
Настройки формата                        : BVOP1 / Custom Matrix
Параметр BVOP формата                    : 1
Параметр QPel формата                    : Нет
Параметр GMC формата                     : Без точки перехода
Параметр матрицы формата                 : Выборочная
Идентификатор кодека                     : XVID
Идентификатор кодека/Подсказка           : XviD
Продолжительность                        : 1 ч. 45 м.
Битрейт                                  : 2105 Кбит/сек
Ширина                                   : 720 пикселей
Высота                                   : 304 пикселя
Соотношение сторон                       : 2,35:1
Частота кадров                           : 23,976 (24000/1001) кадра/сек
Цветовое пространство                    : YUV
Субдискретизация насыщенности            : 4:2:0
Битовая глубина                          : 8 бит
Тип развёртки                            : Прогрессивная
Метод сжатия                             : С потерями
Бит/(Пиксели*Кадры)                      : 0.401
Размер потока                            : 1,55 Гбайт (71%)
Библиотека кодирования                   : XviD 73
Аудио #1
Идентификатор                            : 1
Формат файла                                   : AC-3
Формат файла/Информация                        : Audio Coding 3
Коммерческое название                    : Dolby Digital
Идентификатор кодека                     : 2000
Продолжительность                        : 1 ч. 45 м.
Вид битрейта                             : Постоянный
Битрейт                                  : 384 Кбит/сек
Каналы                                   : 6 каналов
Channel layout                           : L R C LFE Ls Rs
Частота                                  : 48,0 КГц
Частота кадров                           : 31,250 кадров/сек (1536 SPF)
Битовая глубина                          : 16 бит
Метод сжатия                             : С потерями
Размер потока                            : 290 Мбайт (13%)
Выравнивание                             : Разделение по промежуткам
Продолжительность промежутка             : 42  мс. (1,00 видеокадр)
Время предзагрузки промежутка            : 500  мс.
ServiceKind/String                       : Complete Main
Аудио #2
Идентификатор                            : 2
Формат файла                                   : AC-3
Формат файла/Информация                        : Audio Coding 3
Коммерческое название                    : Dolby Digital
Идентификатор кодека                     : 2000
Продолжительность                        : 1 ч. 45 м.
Вид битрейта                             : Постоянный
Битрейт                                  : 448 Кбит/сек
Каналы                                   : 6 каналов
Channel layout                           : L R C LFE Ls Rs
Частота                                  : 48,0 КГц
Частота кадров                           : 31,250 кадров/сек (1536 SPF)
Битовая глубина                          : 16 бит
Метод сжатия                             : С потерями
Размер потока                            : 338 Мбайт (15%)
Выравнивание                             : Разделение по промежуткам
Продолжительность промежутка             : 42  мс. (1,00 видеокадр)
Время предзагрузки промежутка            : 500  мс.
ServiceKind/String                       : Complete Main
[Профиль]    [ЛС]
Показать сообщения:    
Ответить на тему

Текущее время: Сегодня 21:47

Часовой пояс: GMT + 7



Вы не можете начинать темы
Вы не можете отвечать на сообщения
Вы не можете редактировать свои сообщения
Вы не можете удалять свои сообщения
Вы не можете голосовать в опросах
Вы не можете прикреплять файлы к сообщениям
Вы не можете скачивать файлы