Маленькая Италия / Little Italy (Дональд Питри / Donald Petrie) [2018, Канада, США, мелодрама, комедия, WEB-DLRip] MVO (HDRezka Studio)

Ответить на тему
 
Автор Сообщение

torrentc.info

Создавать темы 07-Окт-2018 20:08

[Цитировать]

Маленькая Италия / Little Italy
[img=right]https://i4.imageban.ru/out/2018/10/03/29e764cc8fa17...c3434c.jpg[/img]
Страна: Канада, США
Жанр: мелодрама, комедия
Год выхода: 2018
Продолжительность: 01:41:28-Перевод: Любительский (многоголосый закадровый) | HDRezka Studio
Субтитры: нет
Оригинальная аудиодорожка: нет-Режиссер: Дональд Питри / Donald Petrie-В ролях: Хейден Кристенсен, Эмма Робертс, Алисса Милано, Дэнни Айелло, Андреа Мартин, Джейн Сеймур, Гэри Басараба, Адам Феррара, Эндрю Фунг, Васант Саранга-Описание: Фильм расскажет о Лео и Никки, которые выросли вместе и в детстве были лучшими друзьями. Их родители совместно владели популярным итальянским рестораном, но во время местного конкурса пицц произошел конфликт, который поссорил отцов семейств. Теперь бывшие партнеры основали собственные пиццерии и ожесточенно соперничают друг с другом.
Повзрослев, Лео остался в семейном бизнесе, а Никки отправилась в кулинарную школу в Лондоне. Спустя некоторое время, после своего вынужденного возвращения, девушка вновь встречает друга детства, и между ними вспыхивают чувства. Вот только всё еще не позабытая вражда между семьями не позволяет им открыто встречаться, а скорый отъезд Никки грозит и вовсе разрушить их счастье.-Качество видео: WEB-DLRip
Формат файла: AVI
Видео: 688x288 (2.39:1), 23.976 fps, XviD build 73 ~887 kbps avg, 0.19 bit/pixel
Аудио: 48 kHz, MPEG Layer 3, 2 ch, ~128.00 kbps avg-

Сэмпл-

MediaInfo

Формат файла                                   : AVI
Формат файла/Информация                        : Audio Video Interleave
Размер файла                             : 744 Мбайт
Продолжительность                        : 1 ч. 41 м.
Общий поток                              : 1025 Кбит/сек
Программа кодирования                    : VirtualDubMod 1.5.10.3 | www.virtualdub-fr.org || (build 2550/release)
Библиотека кодирования                   : VirtualDubMod build 2550/release
Видео
Идентификатор                            : 0
Формат файла                                   : MPEG-4 Visual
Профиль формата                          : Advanced Simple@L5
Настройки формата                        : BVOP1
Параметр BVOP формата                    : 1
Параметр QPel формата                    : Нет
Параметр GMC формата                     : Без точки перехода
Параметр матрицы формата                 : Default (H.263)
Идентификатор кодека                     : XVID
Идентификатор кодека/Подсказка           : XviD
Продолжительность                        : 1 ч. 41 м.
Битрейт                                  : 888 Кбит/сек
Ширина                                   : 688 пикселей
Высота                                   : 288 пикселей
Соотношение сторон                       : 2,40:1
Частота кадров                           : 23,976 (24000/1001) кадра/сек
Цветовое пространство                    : YUV
Субдискретизация насыщенности            : 4:2:0
Битовая глубина                          : 8 бит
Тип развёртки                            : Прогрессивная
Метод сжатия                             : С потерями
Бит/(Пиксели*Кадры)                      : 0.187
Размер потока                            : 644 Мбайт (87%)
Библиотека кодирования                   : XviD 73
Аудио
Идентификатор                            : 1
Формат файла                                   : MPEG Audio
Версия формата                           : Version 1
Профиль формата                          : Layer 3
Идентификатор кодека                     : 55
Идентификатор кодека/Подсказка           : MP3
Продолжительность                        : 1 ч. 41 м.
Вид битрейта                             : Постоянный
Битрейт                                  : 128 Кбит/сек
Каналы                                   : 2 канала
Частота                                  : 48,0 КГц
Частота кадров                           : 41,667 кадра/сек (1152 SPF)
Метод сжатия                             : С потерями
Размер потока                            : 92,9 Мбайт (12%)
Выравнивание                             : Соединение по промежуткам
Продолжительность промежутка             : 42  мс. (1,00 видеокадр)
Время предзагрузки промежутка            : 504  мс.
Библиотека кодирования                   : LAME3.99r
Настройки программы                      : -m s -V 4 -q 2 -lowpass 17 -b 128
При появлении проф. озвучки, перезалью.
[Профиль]    [ЛС]
Показать сообщения:    
Ответить на тему

Текущее время: Сегодня 22:00

Часовой пояс: GMT + 7



Вы не можете начинать темы
Вы не можете отвечать на сообщения
Вы не можете редактировать свои сообщения
Вы не можете удалять свои сообщения
Вы не можете голосовать в опросах
Вы не можете прикреплять файлы к сообщениям
Вы не можете скачивать файлы