Да здравствует Сервац / Éljen Szervác! (Фоки Отто / Foky Ottó) [1986, Венгрия, мультфильм, приключения, комедия, TVRip] [Советская прокатная копия] Dub (Ленфильм)

Ответить на тему
Статистика раздачи [Обновить пиров]
Размер:  2.08 GB   |    Зарегистрирован:  2 месяца 8 дней   |    Скачан:  0 раз

Полного источника не было: Никогда

 
   
 
 
 
Автор Сообщение

torrentc.info

Создавать темы 07-Окт-2018 20:08

[Цитировать]

Да здравствует Сервац / Éljen Szervác! [Советская прокатная копия]
Страна: Венгрия
Жанр: мультфильм, приключения, комедия
Продолжительность: 00:53:42
Год выхода: 1986
Перевод: Профессиональный (дублированный) - Киностудия "Ленфильм"
Русские субтитры: нет
Режиссёр: Фоки Отто / Foky Ottó
Описание: Кукольный мультфильм про охотника по имени Сервац. Охотник собирает у себя дома на день рождения друзей-животных и предается воспоминаниям о своих приключениях. Во время причключений молодой рыжеволосый усатый охотник часто попадает в забавные и нелепые ситуации, но благодаря смекалке и ловкости охотника всегда выходит сухим из воды и находит себе новых друзей.
Доп. информация: Мультфильм присутствует не совсем целиком, местами кусков не хватает, сам переписывал с кассеты и больше вообще нигде данный мультфильм не нашел. Если найдется в лучшем качестве и целиком - да поглотит он мою раздачу, а пока на мой взгляд лучше так чем никак. Сохраним кусочек истории.
Семпл: http://sendfile.su/1446896
Качество: TVRip
Формат файла: MKV
Видео: 720x576 (4:3) @ 768x576, 25.000 fps, MPEG-2 Video, ~5016 kbps
Аудио 1: Русский, 48.0 KHz, AC3, 1 ch, 192 Kbps - Filtered
Аудио 2: Русский, 48.0 KHz, MP2, 2 ch, 224 Kbps - Оригинальная оцифровка
Субтитры: отсутствуют

Подробные технические данные

GeneralUnique ID : 216626554412058458796189243555711172661 (0xA2F8C1BCEF3A4BBB6E3BCF5E01624035)Complete name : Да здравствует Сервац 1986 Dub Ленфильм.mkvFormat : MatroskaFormat version : Version 4File size : 2.08 GiBDuration : 53 min 42 sOverall bit rate mode : VariableOverall bit rate : 5 542 kb/sEncoded date : UTC 2018-10-07 12:13:03Writing application : mkvmerge v27.0.0 ('Metropolis') 64-bitWriting library : libebml v1.3.6 + libmatroska v1.4.9
VideoID : 1Format : MPEG VideoFormat version : Version 2Format profile : Main@MainFormat settings : BVOPFormat settings, BVOP : YesFormat settings, Matrix : DefaultFormat settings, GOP : M=3, N=15Codec ID : V_MPEG2Codec ID/Info : MPEG 1 or 2 VideoDuration : 53 min 42 sBit rate mode : VariableBit rate : 5 120 kb/sWidth : 720 pixelsHeight : 576 pixelsDisplay aspect ratio : 4:3Frame rate mode : ConstantFrame rate : 25.000 FPSStandard : PALColor space : YUVChroma subsampling : 4:2:0Bit depth : 8 bitsScan type : ProgressiveScan order : Top Field FirstCompression mode : LossyBits/(Pixel*Frame) : 0.494Time code of first frame : 00:00:00:00Time code source : Group of pictures headerGOP, Open/Closed : OpenGOP, Open/Closed of first frame : ClosedStream size : 1.92 GiB (92%)Default : YesForced : NoColor primaries : BT.601 PALTransfer characteristics : BT.470 System B/GMatrix coefficients : BT.470 System B/G
Audio #1ID : 2Format : AC-3Format/Info : Audio Coding 3Commercial name : Dolby DigitalCodec ID : A_AC3Duration : 53 min 42 sBit rate mode : ConstantBit rate : 192 kb/sChannel(s) : 1 channelChannel layout : CSampling rate : 48.0 kHzFrame rate : 31.250 FPS (1536 SPF)Bit depth : 16 bitsCompression mode : LossyStream size : 73.8 MiB (3%)Title : FilteredLanguage : RussianService kind : Complete MainDefault : YesForced : No
Audio #2ID : 3Format : MPEG AudioFormat version : Version 1Format profile : Layer 2Codec ID : A_MPEG/L2Codec ID/Hint : MP2Duration : 53 min 42 sBit rate mode : ConstantBit rate : 224 kb/sChannel(s) : 2 channelsSampling rate : 48.0 kHzFrame rate : 41.667 FPS (1152 SPF)Compression mode : LossyStream size : 86.0 MiB (4%)Title : Оригинальная оцифровкаLanguage : RussianDefault : NoForced : No


[torrentc.info]_t_5624343.torrent
Торрент: Зарегистрирован ·  [ 2018-10-07 20:08 ] ·  db6fcf71057ae2dcc65c7b4651cda55b9d6e1aea

11 KB

Статус: проверено
Скачан: 0 раз
Размер: 2.08 GB
Оценка: 
(Голосов: 0)
Сказали спасибо: 0  Спасибо
Похожие темы
[Профиль]    [ЛС]
Показать сообщения:    
Ответить на тему

Текущее время: Сегодня 23:36

Часовой пояс: GMT + 7



Вы не можете начинать темы
Вы не можете отвечать на сообщения
Вы не можете редактировать свои сообщения
Вы не можете удалять свои сообщения
Вы не можете голосовать в опросах
Вы не можете прикреплять файлы к сообщениям
Вы можете скачивать файлы