Придержи тьму / Hold the Dark (Джереми Солнье / Jeremy Saulnier) [2018, США, триллер, драма, детектив, криминал, WEBRip-AVC] MVO (NewStudio)

Ответить на тему
 
Автор Сообщение

torrentc.info

Создавать темы 07-Окт-2018 13:48

[Цитировать]

-Придержи тьму / Hold the Dark-- -Страна: США
Жанр: триллер, драма, детектив, криминал
Год выхода: 2018
Продолжительность: 02:05:15-Перевод: Профессиональный (многоголосый закадровый)
Субтитры: нет
Оригинальная аудиодорожка: нет-Режиссер: Джереми Солнье / Jeremy Saulnier-В ролях: Джеффри Райт, Александр Скарсгард, Джеймс Бэдж Дэйл, Беккам Кроуфорд, Райли Кио, Майкл Тэйлс, Исаак Берд, Джозеф Уайтберд, Зандус Сноу, Джулиан Шэмп, Конор Бору-Описание: Маленький городок на Аляске. Бесследно исчезает игравший на улице шестилетний мальчик. Поскольку в округе уже были случаи похищения детей волками, мать исчезнувшего Медора Слоун пишет письмо исследователю и специалисту по волкам Расселлу Кору с просьбой выследить и убить того волка, который забрал её сына. Женщина считает, что должна что-то предъявить мужу, когда тот вернётся с войны в Ираке. Приехав, Рассел слушает рассказы Медоры про тяжелое небо и тьму снаружи, а когда отправляется выслеживать волков, старая женщина говорит ему, что зло в другой стороне.-[img]https://rating.kinopoisk.ru/1009738.gif[/img]- -Качество видео: WEBRip-AVC / Hold.The.Dark.2018.INTERNAL.1080p.WEBRip.X264-DEFLATE
Формат файла: MKV-Видео: MPEG-4 AVC, 936x392 (2.40:1), 23.976 fps, ~1249 kbps avg, 0.142 bit/pixel
Аудио: 48 kHz, AC3 Dolby Digital, 3/2 (L,C,R,l,r) + LFE ch, ~384 kbps avg-

MediaInfo

Complete name               : D:\Раздача\Придержи тьму (2018) WEBRip-AVC_ivanes20031987.mkv
Format                      : Matroska
Format version              : Version 2
File size                   : 1.46 GiB
Duration                    : 2 h 5 min
Overall bit rate            : 1 666 kb/s
Movie name                  : Придержи тьму (2018) WEBRip-AVC_ivanes20031987
Encoded date                : UTC 2018-10-07 05:58:36
Writing application         : mkvmerge v4.4.0 ('Die Wiederkehr') сборка от Jan  3 2011 21:40:45
Writing library             : libebml v1.0.0 + libmatroska v1.0.0
Cover                       : Yes
Attachments                 : cover.jpg
Video
ID                          : 1
Format                      : AVC
Format/Info                 : Advanced Video Codec
Format profile              : High@L4.1
Format settings, CABAC      : Yes
Format settings, RefFrames  : 11 frames
Codec ID                    : V_MPEG4/ISO/AVC
Duration                    : 2 h 5 min
Bit rate                    : 1 249 kb/s
Width                       : 936 pixels
Height                      : 392 pixels
Display aspect ratio        : 2.40:1
Frame rate mode             : Constant
Frame rate                  : 23.976 (24000/1001) FPS
Color space                 : YUV
Chroma subsampling          : 4:2:0
Bit depth                   : 8 bits
Scan type                   : Progressive
Bits/(Pixel*Frame)          : 0.142
Stream size                 : 1.09 GiB (75%)
Title                       : Rip by ivanes20031987
Writing library             : x264 core 157 r2935 545de2f
Encoding settings           : cabac=1 / ref=11 / deblock=1:-3:-3 / analyse=0x3:0x113 / me=umh / subme=10 / psy=1 / psy_rd=1.00:0.00 / mixed_ref=1 / me_range=32 / chroma_me=1 / trellis=2 / 8x8dct=1 / cqm=0 / deadzone=21,11 / fast_pskip=0 / chroma_qp_offset=-2 / threads=12 / lookahead_threads=3 / sliced_threads=0 / nr=0 / decimate=1 / interlaced=0 / bluray_compat=0 / constrained_intra=0 / bframes=11 / b_pyramid=2 / b_adapt=2 / b_bias=0 / direct=1 / weightb=1 / open_gop=0 / weightp=2 / keyint=240 / keyint_min=23 / scenecut=40 / intra_refresh=0 / rc_lookahead=60 / rc=crf / mbtree=0 / crf=16.2 / qcomp=0.60 / qpmin=0 / qpmax=69 / qpstep=4 / vbv_maxrate=50000 / vbv_bufsize=62500 / crf_max=0.0 / nal_hrd=none / filler=0 / ip_ratio=1.40 / pb_ratio=1.30 / aq=1:1.00
Default                     : Yes
Forced                      : No
Audio
ID                          : 2
Format                      : AC-3
Format/Info                 : Audio Coding 3
Format settings, Endianness : Big
Codec ID                    : A_AC3
Duration                    : 2 h 5 min
Bit rate mode               : Constant
Bit rate                    : 384 kb/s
Channel(s)                  : 6 channels
Channel positions           : Front: L C R, Side: L R, LFE
Sampling rate               : 48.0 kHz
Frame rate                  : 31.250 FPS (1536 SPF)
Bit depth                   : 16 bits
Compression mode            : Lossy
Stream size                 : 344 MiB (23%)
Title                       :
Language                    : Russian
Service kind                : Complete Main
Default                     : Yes
Forced                      : No

Скриншоты

[Профиль]    [ЛС]
Показать сообщения:    
Ответить на тему

Текущее время: Сегодня 04:25

Часовой пояс: GMT + 7



Вы не можете начинать темы
Вы не можете отвечать на сообщения
Вы не можете редактировать свои сообщения
Вы не можете удалять свои сообщения
Вы не можете голосовать в опросах
Вы не можете прикреплять файлы к сообщениям
Вы не можете скачивать файлы