Красотка на всю голову / I Feel Pretty (Эбби Кон / Abby Kohn, Марк Силверштейн / Marc Silverstein) [2018, Китай, США, комедия, HDRip] Dub

Ответить на тему
 
Автор Сообщение

torrentc.info

Создавать темы 07-Окт-2018 13:48

[Цитировать]

Красотка на всю голову / I Feel Pretty- Год выхода: 2018
Страна: Китай, США / Huayi Brothers Pictures, Voltage Pictures
Жанр: комедия
Продолжительность: 01:50:58
Перевод: Профессиональный (дублированный)
Субтитры: нет
Оригинальная аудиодорожка: нет-Режиссер: Эбби Кон / Abby Kohn, Марк Силверштейн / Marc Silverstein-В ролях: Эми Шумер, Мишель Уильямс, Том Хоппер, Рори Сковел, Адриан Мартинес, Эмили Ратажковски, Эйди Брайант, Бизи Филиппс, Лорен Хаттон, Сашир Замата.-Описание: Ее жизнь состояла из вечных попыток сесть на диету или заняться фитнесом. «Попытка засчитана», - подумала Вселенная и скинула бедняжку с велотренажера. Девушка ударяется головой и обретает аномальную уверенность в том, что теперь она просто неотразима. Одна проблема - в глазах других людей она ни капли не изменилась. В общем, красотка на всю голову.-Рейтинг
kinopoisk.ru 6.423 (9197)
imdb.com 5.10 (20 115)
-Качество видео: HDRip
Формат файла: AVI | Sample
Видео: 688x288 (2.40:1), 23.976 fps, XviD build 73 ~806 kbps avg, 0.17 bit/pixel
Аудио: 48 kHz, MPEG Layer 3, 2 ch, ~128.00 kbps avg | RUS

Инфо

Формат файла : AVI
Формат файла/Информация : Audio Video Interleave
Размер файла : 746 Мбайт
Продолжительность : 1 ч. 50 м.
Общий поток : 940 Кбит/сек
Видео
Идентификатор : 0
Формат файла : MPEG-4 Visual
Профиль формата : Advanced Simple@L5
Настройки формата : BVOP1 / Custom Matrix
Параметр BVOP формата : 1
Параметр QPel формата : Нет
Параметр GMC формата : Без точки перехода
Параметр матрицы формата : Выборочная
Идентификатор кодека : XVID
Идентификатор кодека/Подсказка : XviD
Продолжительность : 1 ч. 50 м.
Битрейт : 806 Кбит/сек
Ширина : 688 пикселей
Высота : 288 пикселей
Соотношение сторон : 2,40:1
Частота кадров : 23,976 (24000/1001) кадра/сек
Цветовое пространство : YUV
Субдискретизация насыщенности : 4:2:0
Битовая глубина : 8 бит
Тип развёртки : Прогрессивная
Метод сжатия : С потерями
Бит/(Пиксели*Кадры) : 0.170
Размер потока : 640 Мбайт (86%)
Библиотека кодирования : XviD 73
Аудио
Идентификатор : 1
Формат файла : MPEG Audio
Версия формата : Version 1
Профиль формата : Layer 3
Идентификатор кодека : 55
Идентификатор кодека/Подсказка : MP3
Продолжительность : 1 ч. 50 м.
Вид битрейта : Постоянный
Битрейт : 128 Кбит/сек
Каналы : 2 канала
Частота : 48,0 КГц
Частота кадров : 41,667 кадра/сек (1152 SPF)
Метод сжатия : С потерями
Размер потока : 102 Мбайт (14%)
Выравнивание : Соединение по промежуткам
Продолжительность промежутка : 167 мс. (4,00 видеокадра)
Время предзагрузки промежутка : 216 мс.
Библиотека кодирования : LAME3.99r
Настройки программы : -m s -V 4 -q 2 -lowpass 17 -b 128

Скриншоты

[Профиль]    [ЛС]
Показать сообщения:    
Ответить на тему

Текущее время: Сегодня 21:35

Часовой пояс: GMT + 7



Вы не можете начинать темы
Вы не можете отвечать на сообщения
Вы не можете редактировать свои сообщения
Вы не можете удалять свои сообщения
Вы не можете голосовать в опросах
Вы не можете прикреплять файлы к сообщениям
Вы не можете скачивать файлы