Придержи тьму / Hold the Dark (Джереми Солнье / Jeremy Saulnier) [2018, США, триллер, драма, детектив, криминал, WEBRip] MVO (NewStudio)

Ответить на тему
 
Автор Сообщение

torrentc.info

Создавать темы 06-Окт-2018 17:31

[Цитировать]

Придержи тьму / Hold the Dark- Год выхода: 2018
Выпущено: США / Addictive Pictures
Жанр: триллер, драма, детектив, криминал
Продолжительность: 02:05:15
Перевод: Профессиональный (многоголосый, закадровый)
Субтитры: нет-Режиссер:
Джереми Солнье / Jeremy Saulnier-В ролях:
Джеффри Райт, Александр Скарсгард, Джеймс Бэдж Дэйл, Беккам Кроуфорд, Райли Кио, Майкл Тэйлс, Исаак Берд, Джозеф Уайтберд, Зандус Сноу, Джулиан Шэмп, Конор Бору-О фильме:
Маленький городок на Аляске. Бесследно исчезает игравший на улице шестилетний мальчик. Поскольку в округе уже были случаи похищения детей волками, мать исчезнувшего Медора Слоун пишет письмо исследователю и специалисту по волкам Расселлу Кору с просьбой выследить и убить того волка, который забрал её сына. Женщина считает, что должна что-то предъявить мужу, когда тот вернётся с войны в Ираке. Приехав, Рассел слушает рассказы Медоры про тяжелое небо и тьму снаружи, а когда отправляется выслеживать волков, старая женщина говорит ему, что зло в другой стороне.-
| | IMDB | КиноПоиск | Сэмпл |-Качество: WEBRip [Hold.The.Dark.2018.INTERNAL.1080p.WEBRip.X264-DEFLATE]
Формат файла: AVI
Видео: 720x304 (2.37:1), 23.976 fps, XviD build 67 ~1273 kbps avg, 0.24 bit/pixel
Аудио: 48 kHz, AC3 Dolby Digital, 3/2 (L,C,R,l,r) + LFE ch, ~384.00 kbps avg
Цитата: писал(а):

* Работа со звуком - Нордер
-
[img]https://i5.imageban.ru/thumbs/2018.10.05/c7272e1172d6a00a071d69ebfb227bad.jpg[/img]-[img]https://i4.imageban.ru/thumbs/2018.10.05/3e8ec297f5cb4656d2cb62e8951c3ece.jpg[/img][img]https://i3.imageban.ru/thumbs/2018.10.05/41ccf6d51af56e41d857aafda87d968a.jpg[/img][img]https://i4.imageban.ru/thumbs/2018.10.05/8bf32f7cf5a851793c8ba38429c8e8e8.jpg[/img][img]https://i3.imageban.ru/thumbs/2018.10.05/bfa395b6c9be52037c67c810d60c60df.jpg[/img]MediaInfo">

Скриншоты[img]https://i5.imageban.ru/thumbs/2018.10.05/c7272e1172d6a00a071d69ebfb227bad.jpg[/img]-[img]https://i4.imageban.ru/thumbs/2018.10.05/3e8ec297f5cb4656d2cb62e8951c3ece.jpg[/img][img]https://i3.imageban.ru/thumbs/2018.10.05/41ccf6d51af56e41d857aafda87d968a.jpg[/img][img]https://i4.imageban.ru/thumbs/2018.10.05/8bf32f7cf5a851793c8ba38429c8e8e8.jpg[/img][img]https://i3.imageban.ru/thumbs/2018.10.05/bfa395b6c9be52037c67c810d60c60df.jpg[/img]MediaInfo

Общее
Полное имя                               : D:\Priderzhi_t`mu_2018_WEBRip_MVO_by_Dalemake.avi
Формат файла                                   : AVI
Формат файла/Информация                        : Audio Video Interleave
Размер файла                             : 1,46 Гбайт
Продолжительность                        : 2 ч. 5 м.
Общий поток                              : 1667 Кбит/сек
Программа кодирования                    : VirtualDubMod 1.5.10.3 | www.virtualdub-fr.org || (build 2550/release)
Библиотека кодирования                   : VirtualDubMod build 2550/release
Видео
Идентификатор                            : 0
Формат файла                                   : MPEG-4 Visual
Профиль формата                          : Advanced Simple@L5
Параметр BVOP формата                    : 1
Параметр QPel формата                    : Нет
Параметр GMC формата                     : Без точки перехода
Параметр матрицы формата                 : Выборочная
Идентификатор кодека                     : XVID
Идентификатор кодека/Подсказка           : XviD
Продолжительность                        : 2 ч. 5 м.
Битрейт                                  : 1274 Кбит/сек
Ширина                                   : 720 пикселей
Высота                                   : 304 пикселя
Соотношение сторон                       : 2,35:1
Частота кадров                           : 23,976 кадра/сек
Цветовое пространство                    : YUV
Субдискретизация насыщенности            : 4:2:0
Битовая глубина                          : 8 бит
Тип развёртки                            : Прогрессивная
Метод сжатия                             : С потерями
Бит/(Пиксели*Кадры)                      : 0.243
Размер потока                            : 1,11 Гбайт (76%)
Библиотека кодирования                   : XviD 67
Аудио
Идентификатор                            : 1
Формат файла                                   : AC-3
Формат файла/Информация                        : Audio Coding 3
Расширение режима                        : CM (complete main)
Параметр Endianness формата              : Big
Идентификатор кодека                     : 2000
Продолжительность                        : 2 ч. 5 м.
Вид битрейта                             : Постоянный
Битрейт                                  : 384 Кбит/сек
Каналы                                   : 6 каналов
Расположение каналов                     : Front: L C R, Side: L R, LFE
Частота                                  : 48,0 КГц
Битовая глубина                          : 16 бит
Метод сжатия                             : С потерями
Размер потока                            : 344 Мбайт (23%)
Выравнивание                             : Разделение по промежуткам
Продолжительность промежутка             : 42  мс. (1,00 видеокадр)
Время предзагрузки промежутка            : 500  мс.
-
[Профиль]    [ЛС]
Показать сообщения:    
Ответить на тему

Текущее время: Сегодня 05:00

Часовой пояс: GMT + 7



Вы не можете начинать темы
Вы не можете отвечать на сообщения
Вы не можете редактировать свои сообщения
Вы не можете удалять свои сообщения
Вы не можете голосовать в опросах
Вы не можете прикреплять файлы к сообщениям
Вы не можете скачивать файлы