Stand Up. Открытый микрофон Сезон 3-й. (Выпуск 1-7 из ??) (Роман Новиков) [2018, Юмор, HDTV 1080i]

Ответить на тему
Статистика раздачи [Обновить пиров]
Размер:  9.99 GB   |    Зарегистрирован:  13 дней   |    Скачан:  0 раз

Полного источника не было: Никогда

 
   
 
 
 
Автор Сообщение

torrentc.info

Создавать темы 06-Окт-2018 15:50

[Цитировать]

Stand Up. Открытый микрофон
[img=right]https://i102.fastpic.ru/big/2018/0818/21/534555d06b...36a721.jpg[/img]
Дата/Год выхода: 2018
Страна: Россия
Жанр: Юмор
Продолжительность: один выпуск ~00:47:00
Перевод: Не требуется
Режиссер: Роман Новиков
Телеканал: ТНТ HD
Ведущий: Андрей Бебуришвили
Описание: Монологи стендап-комиков в «Открытом микрофоне» основаны на реальной жизни и переживаниях. В этом шоу нет запретных тем и цензуры — только правда, только юмор, только стендап. «Открытый микрофон» — это не просто шоу талантов, а способ найти новых героев в юморе.
качество: HDTV 1080i
формат: MKV
Видео: 1920x1080 (16:9), 25.000 fps, AVC ~4 500 kbps avg
Аудио: AC3, 192 kbps, 48 kHz, 2 ch

Список выпусков

Выпуск №1 от 17.08.2018 г.
Выпуск №2 от 25.08.2018 г.
Выпуск №3 от 31.08.2018 г.
Выпуск №4 от 07.09.2018 г.
Выпуск №5 от 14.09.2018 г.
Выпуск №6 от 21.09.2018 г.
Выпуск №7 от 28.09.2018 г.

MediaInfo

GeneralUnique ID : 237434878948002401877238953451351000656 (0xB2A04B589B7E9A1CB09B14DDEDD54650)Complete name : C:\Users\Admin\Desktop\Humor\Otkrytyj mikrofon\Otkrytyj mikrofon.Season 3.Vypusk 3.mkvFormat : MatroskaFormat version : Version 2File size : 1.43 GiBDuration : 47mn 57sOverall bit rate mode : VariableOverall bit rate : 4 270 KbpsEncoded date : UTC 2018-09-01 01:50:21Writing application : mkvmerge v6.1.0 ('Old Devil') built on Mar 4 2013 09:10:42Writing library : libebml v1.3.0 + libmatroska v1.4.0
VideoID : 1Format : AVCFormat/Info : Advanced Video CodecFormat profile : High@L4.0Format settings, CABAC : YesFormat settings, ReFrames : 4 framesCodec ID : V_MPEG4/ISO/AVCDuration : 47mn 57sBit rate mode : VariableBit rate : 3 993 KbpsMaximum bit rate : 4 500 KbpsWidth : 1 920 pixelsHeight : 1 080 pixelsDisplay aspect ratio : 16:9Frame rate mode : ConstantFrame rate : 25.000 fpsColor space : YUVChroma subsampling : 4:2:0Bit depth : 8 bitsScan type : ProgressiveBits/(Pixel*Frame) : 0.077Stream size : 1.34 GiB (94%)Default : YesForced : No
AudioID : 2Format : AC-3Format/Info : Audio Coding 3Mode extension : CM (complete main)Format settings, Endianness : BigCodec ID : A_AC3Duration : 47mn 57sBit rate mode : ConstantBit rate : 192 KbpsChannel count : 2 channelsChannel positions : Front: L RSampling rate : 48.0 KHzBit depth : 16 bitsCompression mode : LossyStream size : 65.9 MiB (4%)Default : YesForced : No

Внимание! Раздача ведётся путём добавления новых выпусков

Внимание! Раздача ведётся путём добавления новых выпусков; при каждом добавлении создаётся новый торрент. Чтобы начать докачку нового выпуска, пользователям необходимо сделать следующее:
(1) остановить скачивание,
(2) удалить старый торрент у себя из клиента (старые серии удалять не надо),
(3) скачать новый торрент и запустить его у себя в клиенте вместо старого, при этом указать клиенту путь в старую папку куда и должно происходить скачивание новых выпусков.
Ваш клиент при этом должен произвести хеширование (проверку) старой папки (если не производит сам - помогите ему сделать это). В результате он будет докачивать только те выпуски, которых у Вас ещё нет. Старые выпуски при этом не удаляются, а продолжают раздаваться!
Eсли Вы уже удалили старые выпуски, то предотвратить их повторную закачку можно, сняв галочки в соответствующих местах при запуске нового торрента. По возможности, желательно не удалять старые выпуски как можно дольше, чтобы релизёр не только продолжал раздавать старые выпуски, но и смог сконцентрироваться на новых.


[torrentc.info]_t_5607849.torrent
Торрент: Зарегистрирован ·  [ 2018-10-06 15:49 ] ·  9f46db30dc9822bbce54a1bf363c6969c051c5d9

51 KB

Статус: проверено
Скачан: 0 раз
Размер: 9.99 GB
Оценка: 
(Голосов: 0)
Сказали спасибо: 0  Спасибо
Похожие темы
[Профиль]    [ЛС]
Показать сообщения:    
Ответить на тему

Текущее время: Сегодня 13:38

Часовой пояс: GMT + 7



Вы не можете начинать темы
Вы не можете отвечать на сообщения
Вы не можете редактировать свои сообщения
Вы не можете удалять свои сообщения
Вы не можете голосовать в опросах
Вы не можете прикреплять файлы к сообщениям
Вы можете скачивать файлы