Небоскрёб / Skyscraper (Роусон Маршалл Тёрбер / Rawson Marshall Thurber) [2018, США, боевик, триллер, BDRip-AVC] Dub + Original Eng + Sub Rus, Eng

Ответить на тему
 
Автор Сообщение

torrentc.info

Создавать темы 04-Окт-2018 01:55

[Цитировать]

Небоскрёб / Skyscraper- Год выхода: 2018
Страна: США / Legendary Entertainment
Жанр: боевик, триллер
Продолжительность: 01:42:24
Перевод: Профессиональный (дублированный) iTunes
Субтитры: русские (форсированные, полные), английские (полные, полные SDH)
Оригинальная аудиодорожка: английский-Режиссер: Роусон Маршалл Тёрбер / Rawson Marshall Thurber-В ролях: Дуэйн Джонсон, Нив Кэмпбелл, Пабло Шрайбер, Ноа Тейлор, Кевин Ранкин, Роланд Мёллер, Байрон Манн, Мэтт О`Лири, Адриан Холмс.-Описание: Самый высокий и технологичный небоскрёб в мире становится центром огненной катастрофы. Только бывший агент ФБР, а теперь эксперт по безопасности Уилл Сойер может спасти вертикальный город под небесами. Когда нельзя доверять никому, а жизнь семьи в опасности, каждая секунда на счету.-Рейтинг
kinopoisk.ru 6.085 (16 444)
imdb.com 5.90 (42 078)
-Качество видео: BDRip-AVC (Skyscraper.2018.BDRemux.TeamHD)
Формат файла: MKV | Sample
Видео: 1104x460 (2.40:1), 23.976 fps, x264@L4.1 ~2153 kbps avg, 0.18 bit/pixel
Аудио 1: 48 kHz, AC3 Dolby Digital, 3/2 (L,C,R,l,r) + LFE ch, ~384.00 kbps avg | RUS
Аудио 2: 48 kHz, AC3 Dolby Digital, 3/2 (L,C,R,l,r) + LFE ch, ~448.00 kbps avg | ENG

Инфо

Формат файла : Matroska
Версия формата : Version 4
Размер файла : 2,12 Гбайт
Продолжительность : 1 ч. 42 м.
Общий поток : 2960 Кбит/сек
Название фильма : Skyscraper (2018)
Дата кодирования : UTC 2018-10-02 08:43:28
Программа кодирования : mkvmerge v5.9.0 ('On The Loose') built on Dec 15 2012 16:39:58
Библиотека кодирования : libebml v1.3.0 + libmatroska v1.4.0
Видео
Идентификатор : 1
Формат файла : AVC
Формат файла/Информация : Advanced Video Codec
Профиль формата : High@L4.1
Настройки формата : CABAC / 12 Ref Frames
Параметр CABAC формата : Да
Параметр RefFrames формата : 12 кадров
Идентификатор кодека : V_MPEG4/ISO/AVC
Продолжительность : 1 ч. 42 м.
Битрейт : 2153 Кбит/сек
Ширина : 1104 пикселя
Высота : 460 пикселей
Соотношение сторон : 2,40:1
Режим частоты кадров : Постоянный
Частота кадров : 23,976 (24000/1001) кадра/сек
Цветовое пространство : YUV
Субдискретизация насыщенности : 4:2:0
Битовая глубина : 8 бит
Тип развёртки : Прогрессивная
Бит/(Пиксели*Кадры) : 0.177
Размер потока : 1,48 Гбайт (70%)
Заголовок :
Библиотека кодирования : x264 core 155 r2901M 7d0ff22
Настройки программы : cabac=1 / ref=12 / deblock=1:-2:-2 / analyse=0x3:0x133 / me=umh / subme=11 / psy=1 / psy_rd=1.00:0.05 / mixed_ref=1 / me_range=48 / chroma_me=1 / trellis=2 / 8x8dct=1 / cqm=0 / deadzone=21,11 / fast_pskip=0 / chroma_qp_offset=-3 / threads=9 / lookahead_threads=2 / sliced_threads=0 / nr=0 / decimate=0 / interlaced=0 / bluray_compat=0 / constrained_intra=0 / bframes=11 / b_pyramid=2 / b_adapt=2 / b_bias=0 / direct=3 / weightb=1 / open_gop=0 / weightp=2 / keyint=240 / keyint_min=23 / scenecut=40 / intra_refresh=0 / rc_lookahead=100 / rc=2pass / mbtree=0 / bitrate=2153 / ratetol=1.0 / qcomp=0.70 / qpmin=0 / qpmax=69 / qpstep=4 / cplxblur=20.0 / qblur=0.5 / vbv_maxrate=50000 / vbv_bufsize=50000 / nal_hrd=none / filler=0 / ip_ratio=1.40 / pb_ratio=1.30 / aq=1:0.80
Язык : English
Default : Да
Forced : Нет
Аудио #1
Идентификатор : 2
Формат файла : AC-3
Формат файла/Информация : Audio Coding 3
Коммерческое название : Dolby Digital
Идентификатор кодека : A_AC3
Продолжительность : 1 ч. 42 м.
Вид битрейта : Постоянный
Битрейт : 384 Кбит/сек
Каналы : 6 каналов
Channel layout : L R C LFE Ls Rs
Частота : 48,0 КГц
Частота кадров : 31,250 кадров/сек (1536 SPF)
Битовая глубина : 16 бит
Метод сжатия : С потерями
Размер потока : 281 Мбайт (13%)
Заголовок : Dub | DD 5.1 @ 384 kbps - iTunes
Язык : Russian
ServiceKind/String : Complete Main
Default : Да
Forced : Нет
Аудио #2
Идентификатор : 3
Формат файла : AC-3
Формат файла/Информация : Audio Coding 3
Коммерческое название : Dolby Digital
Идентификатор кодека : A_AC3
Продолжительность : 1 ч. 42 м.
Вид битрейта : Постоянный
Битрейт : 448 Кбит/сек
Каналы : 6 каналов
Channel layout : L R C LFE Ls Rs
Частота : 48,0 КГц
Частота кадров : 31,250 кадров/сек (1536 SPF)
Битовая глубина : 16 бит
Метод сжатия : С потерями
Размер потока : 328 Мбайт (15%)
Заголовок : Original| DD 5.1 @ 448 kbps
Язык : English
ServiceKind/String : Complete Main
Default : Нет
Forced : Нет
Текст #1
Идентификатор : 4
Формат файла : UTF-8
Идентификатор кодека : S_TEXT/UTF8
Идентификатор кодека/Информация : UTF-8 Plain Text
Заголовок : Forced
Язык : Russian
Default : Да
Forced : Да
Текст #2
Идентификатор : 5
Формат файла : UTF-8
Идентификатор кодека : S_TEXT/UTF8
Идентификатор кодека/Информация : UTF-8 Plain Text
Заголовок : iTunes
Язык : Russian
Default : Нет
Forced : Нет
Текст #3
Идентификатор : 6
Формат файла : UTF-8
Идентификатор кодека : S_TEXT/UTF8
Идентификатор кодека/Информация : UTF-8 Plain Text
Заголовок : Full
Язык : English
Default : Нет
Forced : Нет
Текст #4
Идентификатор : 7
Формат файла : UTF-8
Идентификатор кодека : S_TEXT/UTF8
Идентификатор кодека/Информация : UTF-8 Plain Text
Заголовок : SDH
Язык : English
Default : Нет
Forced : Нет
Текст #5
Идентификатор : 8
Формат файла : UTF-8
Идентификатор кодека : S_TEXT/UTF8
Идентификатор кодека/Информация : UTF-8 Plain Text
Заголовок : SDH-Colored
Язык : English
Default : Нет
Forced : Нет
Меню
00:00:00.000 : en:Chapter 01
00:04:24.764 : en:Chapter 02
00:10:07.355 : en:Chapter 03
00:16:09.927 : en:Chapter 04
00:21:12.604 : en:Chapter 05
00:21:12.605 : en:Chapter 06
00:25:34.990 : en:Chapter 07
00:30:11.726 : en:Chapter 08
00:30:11.727 : en:Chapter 09
00:35:23.913 : en:Chapter 10
00:40:07.111 : en:Chapter 11 / en:Chapter 12
00:47:18.960 : en:Chapter 13 / en:Chapter 14
00:52:10.250 : en:Chapter 15 / en:Chapter 16
00:58:16.784 : en:Chapter 17
01:02:02.969 : en:Chapter 18
01:05:29.634 : en:Chapter 19
01:09:59.403 : en:Chapter 20 / en:Chapter 21
01:14:31.425 : en:Chapter 22
01:17:18.256 : en:Chapter 23
01:17:18.259 : en:Chapter 24
01:23:33.340 : en:Chapter 25
01:27:46.219 : en:Chapter 26
01:32:54.568 : en:Chapter 27

Скриншоты

[Профиль]    [ЛС]
Показать сообщения:    
Ответить на тему

Текущее время: Сегодня 05:11

Часовой пояс: GMT + 7



Вы не можете начинать темы
Вы не можете отвечать на сообщения
Вы не можете редактировать свои сообщения
Вы не можете удалять свои сообщения
Вы не можете голосовать в опросах
Вы не можете прикреплять файлы к сообщениям
Вы не можете скачивать файлы