Dash Berlin @ Transmission 2009 [2009, Trance, TVRip]

Ответить на тему
Статистика раздачи [Обновить пиров]
Размер:  43 MB   |    Зарегистрирован:  1 месяц 23 дня   |    Скачан:  0 раз

Полного источника не было: Никогда

 
   
 
 
 
Автор Сообщение

torrentc.info

Создавать темы 26-Сен-2018 05:36

[Цитировать]

Dash Berlin @ Transmission 2009-[img=right]https://a.radikal.ru/a31/1802/a9/697cace291c9.jpg[/img]
Год выхода: 2009
Жанр: Trance
Продолжительность: 3:35
Описание: клип с фестиваля, на фоне играет Ram & Dash Berlin - Man On The Run To Ramsterdam (Johnvas Mashup)
Качество: WEBRip
Формат файла: AVI
Видео: XviD, 854x480 (16:9), 29.970 fps, 1 479 Kbps (0.120 bit/pixel)
Аудио: MP3, 44.1 KHz, 2 ch, 192 Kbps, CBR

Mediainfo

General
Complete name : G:\1lhkl\Dash Berlin @ Transmission 2009.avi
Format : AVI
Format/Info : Audio Video Interleave
File size : 43.3 MiB
Duration : 3mn 35s
Overall bit rate : 1 682 Kbps
Writing application : Lavf51.12.1
Video
Format : xvid
Codec ID : xvid
Duration : 3mn 35s
Bit rate : 1 479 Kbps
Width : 854 pixels
Height : 480 pixels
Display aspect ratio : 16:9
Frame rate : 29.970 fps
Resolution : 24 bits
Bits/(Pixel*Frame) : 0.120
Stream size : 38.0 MiB (88%)
Audio
ID : 1
Format : MPEG Audio
Format version : Version 1
Format profile : Layer 3
Codec ID : 55
Codec ID/Hint : MP3
Duration : 3mn 35s
Bit rate mode : Constant
Bit rate : 192 Kbps
Channel(s) : 2 channels
Sampling rate : 44.1 KHz
Resolution : 16 bits
Stream size : 4.94 MiB (11%)
Alignment : Aligned on interleaves
Interleave, duration : 26 ms (0.78 video frame)
Writing library : LAME3.97


[torrentc.info]_t_2586580.torrent
Торрент: Зарегистрирован ·  [ 2018-09-26 05:35 ] ·  d5fc7b62a9928cd4c38f061531dc110f4dd46c3d

14 KB

Статус: проверено
Скачан: 0 раз
Размер: 43 MB
Оценка: 
(Голосов: 0)
Сказали спасибо: 0  Спасибо
Похожие темы
[Профиль]    [ЛС]
Показать сообщения:    
Ответить на тему

Текущее время: Сегодня 23:03

Часовой пояс: GMT + 7



Вы не можете начинать темы
Вы не можете отвечать на сообщения
Вы не можете редактировать свои сообщения
Вы не можете удалять свои сообщения
Вы не можете голосовать в опросах
Вы не можете прикреплять файлы к сообщениям
Вы можете скачивать файлы