Горячие каникулы / Swinging Safari (Стефан Эллиотт / Stephan Elliott) [2018, Австралия, комедия, BDRip] MVO (HDRezka Studio)

Ответить на тему
 
Автор Сообщение

torrentc.info

Создавать темы 23-Сен-2018 14:11

[Цитировать]

Горячие каникулы / Swinging Safari
[img=right]https://i3.imageban.ru/out/2018/09/23/fe31a814a6a38...0caf20.jpg[/img]
Страна: Австралия
Жанр: комедия
Год выхода: 2018
Продолжительность: 01:36:15-Перевод: Любительский (многоголосый закадровый) | HDRezka Studio
Субтитры: нет
Оригинальная аудиодорожка: нет-Режиссер: Стефан Эллиотт / Stephan Elliott-В ролях: Гай Пирс, Кайли Миноуг, Рада Митчелл, Джулиан МакМэхон, Ашер Кедди, Джереми Симс, Аттикус Робб, Дарси Уилсон, Джек Томпсон, Оскар Бэйли-Описание: Сексуальная революция, хиппи, глэм рок- всё это яркие, зажигательные семидесятые. 14-летний Джефф пытается найти себя в мире, который меняется быстрее, чем его гормоны, и не знает, как справиться со своим влечением к застенчивой и чувствительной девушке Мелли, живущей по соседству. Между тем, их эксцентричных родителей всё сильнее накрывает волна запретных ранее удовольствий…-Качество видео: BDRip | Swinging.Safari.2018.REMUX
Формат файла: AVI
Видео: 720x304 (2.37:1), 24.000 fps, XviD build 73 ~1964 kbps avg, 0.37 bit/pixel
Аудио: 48 kHz, AC3 Dolby Digital, 2/0 (L,R) ch, ~192 kbps-

Сэмпл-

MediaInfo

Формат файла                                   : AVI
Формат файла/Информация                        : Audio Video Interleave
Размер файла                             : 1,46 Гбайт
Продолжительность                        : 1 ч. 36 м.
Общий поток                              : 2166 Кбит/сек
Программа кодирования                    : VirtualDubMod 1.5.10.3 | www.virtualdub-fr.org || (build 2550/release)
Библиотека кодирования                   : VirtualDubMod build 2550/release
Видео
Идентификатор                            : 0
Формат файла                                   : MPEG-4 Visual
Профиль формата                          : Advanced Simple@L5
Настройки формата                        : BVOP1 / Custom Matrix
Параметр BVOP формата                    : 1
Параметр QPel формата                    : Нет
Параметр GMC формата                     : Без точки перехода
Параметр матрицы формата                 : Выборочная
Идентификатор кодека                     : XVID
Идентификатор кодека/Подсказка           : XviD
Продолжительность                        : 1 ч. 36 м.
Битрейт                                  : 1964 Кбит/сек
Ширина                                   : 720 пикселей
Высота                                   : 304 пикселя
Соотношение сторон                       : 2,35:1
Частота кадров                           : 24,000 кадра/сек
Цветовое пространство                    : YUV
Субдискретизация насыщенности            : 4:2:0
Битовая глубина                          : 8 бит
Тип развёртки                            : Прогрессивная
Метод сжатия                             : С потерями
Бит/(Пиксели*Кадры)                      : 0.374
Размер потока                            : 1,32 Гбайт (91%)
Библиотека кодирования                   : XviD 73
Аудио
Идентификатор                            : 1
Формат файла                                   : AC-3
Формат файла/Информация                        : Audio Coding 3
Коммерческое название                    : Dolby Digital
Идентификатор кодека                     : 2000
Продолжительность                        : 1 ч. 36 м.
Вид битрейта                             : Постоянный
Битрейт                                  : 192 Кбит/сек
Каналы                                   : 2 канала
Channel layout                           : L R
Частота                                  : 48,0 КГц
Частота кадров                           : 31,250 кадров/сек (1536 SPF)
Битовая глубина                          : 16 бит
Метод сжатия                             : С потерями
Размер потока                            : 132 Мбайт (9%)
Выравнивание                             : Разделение по промежуткам
Продолжительность промежутка             : 42  мс. (1,00 видеокадр)
Время предзагрузки промежутка            : 500  мс.
ServiceKind/String                       : Complete Main
При появлении проф. озвучки, перезалью.
[Профиль]    [ЛС]
Показать сообщения:    
Ответить на тему

Текущее время: Сегодня 16:09

Часовой пояс: GMT + 7



Вы не можете начинать темы
Вы не можете отвечать на сообщения
Вы не можете редактировать свои сообщения
Вы не можете удалять свои сообщения
Вы не можете голосовать в опросах
Вы не можете прикреплять файлы к сообщениям
Вы не можете скачивать файлы