Кажется, мы остались одни / I Think We\'re Alone Now (Майк Маковски / Mike Makowsky) [2018, США, фантастика, драма, WEB-DLRip] VO (BadBajo)

Ответить на тему
 
Автор Сообщение

torrentc.info

Создавать темы 22-Сен-2018 19:43

[Цитировать]

Кажется, мы остались одни / I Think We're Alone Now
Страна: США
Жанр: фантастика, драма
Год выхода: 2018
Продолжительность: 01:39:18-Перевод: Одноголосый закадровый | BadBajo
Субтитры: нет
Оригинальная аудиодорожка: нет-Режиссер: Майк Маковски / Mike Makowsky-В ролях: Питер Динклэйдж, Элль Фэннинг, Шарлотта Генсбур, Пол Джаматти-Описание: Дэл живет отшельником и считает себя вполне счастливым человеком, и, когда в мире происходит апокалипсис, в его жизни ничего не меняется. До тех пор, пока на горизонте не появляется второй выживший, угрожая стать его другом.-Качество видео: WEB-DLRip
Формат файла: AVI
Видео: 720x304 (2.37:1), 23.976 fps, XviD build 73 ~1706 kbps avg, 0.33 bit/pixel
Аудио: 48 kHz, AC3 Dolby Digital, 3/2 (L,C,R,l,r) + LFE ch, ~384 kbps-

Сэмпл-

MediaInfo

Формат файла                                   : AVI
Формат файла/Информация                        : Audio Video Interleave
Размер файла                             : 1,46 Гбайт
Продолжительность                        : 1 ч. 39 м.
Общий поток                              : 2100 Кбит/сек
Программа кодирования                    : VirtualDubMod 1.5.10.3 | www.virtualdub-fr.org || (build 2550/release)
Библиотека кодирования                   : VirtualDubMod build 2550/release
Видео
Идентификатор                            : 0
Формат файла                                   : MPEG-4 Visual
Профиль формата                          : Advanced Simple@L5
Настройки формата                        : BVOP1 / Custom Matrix
Параметр BVOP формата                    : 1
Параметр QPel формата                    : Нет
Параметр GMC формата                     : Без точки перехода
Параметр матрицы формата                 : Выборочная
Идентификатор кодека                     : XVID
Идентификатор кодека/Подсказка           : XviD
Продолжительность                        : 1 ч. 39 м.
Битрейт                                  : 1706 Кбит/сек
Ширина                                   : 720 пикселей
Высота                                   : 304 пикселя
Соотношение сторон                       : 2,35:1
Частота кадров                           : 23,976 (24000/1001) кадра/сек
Цветовое пространство                    : YUV
Субдискретизация насыщенности            : 4:2:0
Битовая глубина                          : 8 бит
Тип развёртки                            : Прогрессивная
Метод сжатия                             : С потерями
Бит/(Пиксели*Кадры)                      : 0.325
Размер потока                            : 1,18 Гбайт (81%)
Библиотека кодирования                   : XviD 73
Аудио
Идентификатор                            : 1
Формат файла                                   : AC-3
Формат файла/Информация                        : Audio Coding 3
Коммерческое название                    : Dolby Digital
Идентификатор кодека                     : 2000
Продолжительность                        : 1 ч. 39 м.
Вид битрейта                             : Постоянный
Битрейт                                  : 384 Кбит/сек
Каналы                                   : 6 каналов
Channel layout                           : L R C LFE Ls Rs
Частота                                  : 48,0 КГц
Частота кадров                           : 31,250 кадров/сек (1536 SPF)
Битовая глубина                          : 16 бит
Метод сжатия                             : С потерями
Размер потока                            : 273 Мбайт (18%)
Выравнивание                             : Разделение по промежуткам
Продолжительность промежутка             : 42  мс. (1,00 видеокадр)
Время предзагрузки промежутка            : 500  мс.
ServiceKind/String                       : Complete Main
[Профиль]    [ЛС]
Показать сообщения:    
Ответить на тему

Текущее время: Сегодня 13:25

Часовой пояс: GMT + 7



Вы не можете начинать темы
Вы не можете отвечать на сообщения
Вы не можете редактировать свои сообщения
Вы не можете удалять свои сообщения
Вы не можете голосовать в опросах
Вы не можете прикреплять файлы к сообщениям
Вы не можете скачивать файлы