Роли исполняют 3 (2 выпускa) [2009, Документальный цикл, кино, театр, DVB]

Ответить на тему
Статистика раздачи [Обновить пиров]
Размер:  1.28 GB   |    Зарегистрирован:  2 месяца 24 дня   |    Скачан:  0 раз

Полного источника не было: Никогда

 
   
 
 
 
Автор Сообщение

torrentc.info

Создавать темы 21-Сен-2018 21:12

[Цитировать]

Роли исполняют 3 (2 выпускa)
Дата/Год выхода: 2009
Страна: Россия
Жанр: Документальный цикл, кино, театр
Продолжительность: 2x ~00:43:00
Перевод: Не требуется
Русские субтитры: нет
Оригинальная аудиодорожка: русский
Телеканал: Время
Описание:
Авторская программа Марины Райкиной. Рассказы о знаковых театральных спектаклях — и, конечно, встречи с любимыми театральными актерами ...
07.08.2018 _ добавил: Шкловский Сергей
Сэмпл: http://multi-up.com/1205674
качество: DVB
формат: TS
Видео: AVC, 720x576, (16:9), 25 fps, 1 499 kb/s
Аудио: RUS, MP2, 48 kHz, 2 ch, 192 kbps

Список выпусков/серий


Нильская Людмила
Шкловский Сергей

MediaInfo

GeneralID : 1 (0x1)Complete name : C:\Нильская Людмила.tsFormat : MPEG-TSFile size : 549 MiBDuration : 43 min 5 sOverall bit rate mode : VariableOverall bit rate : 1 781 kb/s
VideoID : 219 (0xDB)Menu ID : 819 (0x333)Format : AVCFormat/Info : Advanced Video CodecFormat profile : High@L3Format settings : CABAC / 4 Ref FramesFormat settings, CABAC : YesFormat settings, RefFrames : 4 framesCodec ID : 27Duration : 43 min 5 sBit rate : 1 499 kb/sWidth : 720 pixelsHeight : 576 pixelsDisplay aspect ratio : 16:9Frame rate : 25.000 FPSStandard : ComponentColor space : YUVChroma subsampling : 4:2:0Bit depth : 8 bitsScan type : InterlacedScan type, store method : Separated fieldsScan order : Top Field FirstBits/(Pixel*Frame) : 0.145Stream size : 462 MiB (84%)Color range : LimitedColor primaries : BT.601 PALTransfer characteristics : BT.470 System B/GMatrix coefficients : BT.470 System B/G
AudioID : 319 (0x13F)Menu ID : 819 (0x333)Format : MPEG AudioFormat version : Version 1Format profile : Layer 2Codec ID : 3Duration : 43 min 5 sBit rate mode : ConstantBit rate : 192 kb/sChannel(s) : 2 channelsSampling rate : 48.0 kHzFrame rate : 41.667 FPS (1152 SPF)Compression mode : LossyStream size : 59.2 MiB (11%)Language : Russian
Роли исполняют 1">

Скриншоты Роли исполняют 1


http://Torrentc/forum/viewtopic.php?t=5178374

Роли исполняют 2

http://Torrentc/forum/viewtopic.php?t=5047084


[torrentc.info]_t_5597505.torrent
Торрент: Зарегистрирован ·  [ 2018-09-21 21:11 ] ·  78bc03719aaefdc89bbff728a296bbce39528172

13 KB

Статус: проверено
Скачан: 0 раз
Размер: 1.28 GB
Оценка: 
(Голосов: 0)
Сказали спасибо: 0  Спасибо
Похожие темы
[Профиль]    [ЛС]
Показать сообщения:    
Ответить на тему

Текущее время: Сегодня 23:10

Часовой пояс: GMT + 7



Вы не можете начинать темы
Вы не можете отвечать на сообщения
Вы не можете редактировать свои сообщения
Вы не можете удалять свои сообщения
Вы не можете голосовать в опросах
Вы не можете прикреплять файлы к сообщениям
Вы можете скачивать файлы