Неизвестный "Ленфильм" [2018, история кино, мультипликация, DVB]

Ответить на тему
Статистика раздачи [Обновить пиров]
Размер:  1.74 GB   |    Зарегистрирован:  2 месяца 26 дней   |    Скачан:  0 раз

Полного источника не было: Никогда

 
   
 
 
 
Автор Сообщение

torrentc.info

Создавать темы 20-Сен-2018 22:09

[Цитировать]

Неизвестный "Ленфильм"- Год выхода: 2018
Страна: Россия
Жанр: история кино, мультипликация
Продолжительность: 01:19:14
Перевод: Не требуется
Русские субтитры: нет
Оригинальная аудиодорожка: русский-Телеканал: Культура-Описание: Историк кино Петр Багров представляет ретроспективу "Неизвестный "Ленфильм". Рассказывает о режиссерах-мультипликаторах Михаиле Цехановском и Вячеславе Пащенко.-: -Семпл: http://sendfile.su/1431907-Качество: DVB
Формат файла: TS
Видео: 720x576 (16:9), 25.000 fps, AVC, ~2792 Kbps, 0.269 bits/pixel
Аудио: Русский, 48.0 KHz, MPEG-1 Audio layer 2, 2 ch, 192 Kbps

MediaInfo

GeneralID : 1 (0x1)Complete name : Неизвестный Ленфильм 2018 Культура.tsFormat : MPEG-TSFile size : 1.74 GiBDuration : 1 h 19 minOverall bit rate mode : VariableOverall bit rate : 3 141 kb/s
VideoID : 205 (0xCD)Menu ID : 1 (0x1)Format : AVCFormat/Info : Advanced Video CodecFormat profile : High@L3Format settings : CABAC / 4 Ref FramesFormat settings, CABAC : YesFormat settings, RefFrames : 4 framesCodec ID : 27Duration : 1 h 19 minBit rate : 2 792 kb/sWidth : 720 pixelsHeight : 576 pixelsDisplay aspect ratio : 16:9Frame rate : 25.000 FPSStandard : ComponentColor space : YUVChroma subsampling : 4:2:0Bit depth : 8 bitsScan type : InterlacedScan type, store method : Separated fieldsScan order : Top Field FirstBits/(Pixel*Frame) : 0.269Stream size : 1.55 GiB (89%)Color range : LimitedColor primaries : BT.601 PALTransfer characteristics : BT.470 System B/GMatrix coefficients : BT.470 System B/G
AudioID : 305 (0x131)Menu ID : 1 (0x1)Format : MPEG AudioFormat version : Version 1Format profile : Layer 2Codec ID : 3Duration : 1 h 19 minBit rate mode : ConstantBit rate : 192 kb/sChannel(s) : 2 channelsSampling rate : 48.0 kHzFrame rate : 41.667 FPS (1152 SPF)Compression mode : LossyDelay relative to video : -40 msStream size : 109 MiB (6%)Language : Russian
TextID : 505 (0x1F9)-888Menu ID : 1 (0x1)Format : Teletext SubtitleLanguage : RussianLanguage, more info : For hearing impaired people


[torrentc.info]_t_5590309.torrent
Торрент: Зарегистрирован ·  [ 2018-09-20 22:06 ] ·  01a7e68b8a4f92618a81809fe757517591797d7d

18 KB

Статус: проверено
Скачан: 0 раз
Размер: 1.74 GB
Оценка: 
(Голосов: 0)
Сказали спасибо: 0  Спасибо
Похожие темы
[Профиль]    [ЛС]
Показать сообщения:    
Ответить на тему

Текущее время: Сегодня 21:36

Часовой пояс: GMT + 7



Вы не можете начинать темы
Вы не можете отвечать на сообщения
Вы не можете редактировать свои сообщения
Вы не можете удалять свои сообщения
Вы не можете голосовать в опросах
Вы не можете прикреплять файлы к сообщениям
Вы можете скачивать файлы