(Trance) [CDM] Ghettoblasta - I.O.U. - 1998, FLAC (tracks+.cue), lossless

Ответить на тему
Статистика раздачи [Обновить пиров]
Размер:  111 MB   |    Зарегистрирован:  1 месяц   |    Скачан:  0 раз

Полного источника не было: Никогда

 
   
 
 
 
Автор Сообщение

torrentc.info

Создавать темы 19-Сен-2018 20:31

[Цитировать]

Ghettoblasta / I.O.U.
Жанр: Trance
Носитель: CDM
Страна-производитель диска (релиза): Germany
Год издания: 1998
Издатель (лейбл): Epidrome
Номер по каталогу: EPD 665907 2
Страна исполнителя (группы): Germany
Аудиокодек: FLAC (*.flac)
Тип рипа: tracks+.cue
Битрейт аудио: lossless
Продолжительность: 00:16:46
Источник (релизер): Собственный рип
Наличие сканов в содержимом раздачи: да
Треклист:
1. I.O.U. (Radioedit) 3:53
2. I.O.U. (Clubmix) 5:36
3. Get Busy 5:57

Лог создания рипа

Exact Audio Copy V1.3 from 2. September 2016
Отчёт EAC об извлечении, выполненном 16. августа 2018, 9:35
Ghettoblasta / I.O.U.
Дисковод: ATAPI iHAS124 F Adapter: 1 ID: 0
Режим чтения : ДостоверностьИспользование точного потока : ДаОтключение кэша аудио : ДаИспользование указателей C2 : Нет
Коррекция смещения при чтении : 6Способность читать области Lead-in и Lead-out : НетЗаполнение пропущенных сэмплов тишиной : ДаУдаление блоков с тишиной в начале и конце : НетПри вычислениях CRC использовались нулевые сэмплы : ДаИнтерфейс : Встроенный Win32-интерфейс для Win NT/2000Обработка зазоров : Добавлено к предыдущему треку
Выходной формат : Пользовательский кодировщикВыбранный битрейт : 128 kBit/sКачество : ВысокийДобавление ID3-тега : НетУтилита сжатия : C:\Program Files (x86)\Exact Audio Copy\Flac\flac.exeДополнительные параметры : -V -8 -T "Date=%year%" -T "Genre=%genre%" %source%
TOC извлечённого CD
Трек | Старт | Длительность | Начальный сектор | Конечный сектор --------------------------------------------------------------------- 1 | 0:00.00 | 3:54.50 | 0 | 17599 2 | 3:54.50 | 5:38.00 | 17600 | 42949 3 | 9:32.50 | 5:58.00 | 42950 | 69799
Трек 1
Имя файла G:\НА РАЗДАЧУ\I.O.U\01 I.O.U. (Radioedit).wav
Длина предзазора 0:00:02.00
Пиковый уровень 98.3 % Скорость извлечения 5.2 X Качество трека 100.0 % CRC теста 2F0C493F CRC копии 2F0C493F Точное извлечение (достоверность 4) [75308C44] (AR v2) Копирование... OK
Трек 2
Имя файла G:\НА РАЗДАЧУ\I.O.U\02 I.O.U. (clubmix).wav
Длина предзазора 0:00:01.13
Пиковый уровень 98.2 % Скорость извлечения 5.6 X Качество трека 99.9 % CRC теста DB6849E1 CRC копии DB6849E1 Точное извлечение (достоверность 4) [C3E81165] (AR v2) Копирование... OK
Трек 3
Имя файла G:\НА РАЗДАЧУ\I.O.U\03 Get Busy.wav
Длина предзазора 0:00:01.03
Пиковый уровень 98.0 % Скорость извлечения 6.8 X Качество трека 100.0 % CRC теста C789F551 CRC копии C789F551 Точное извлечение (достоверность 4) [64F27216] (AR v2) Копирование... OK
Все треки извлечены точно
Ошибок не произошло
Конец отчёта
==== Контрольная сумма отчёта 432D9B19790C89A2B12A92E83BC22202BCB3FF81F3D4A0B2646151EB65143F73 ====

Содержание индексной карты (.CUE)

REM GENRE ElectroREM DATE 1998REM DISCID 1D03A203REM COMMENT "ExactAudioCopy v1.3"PERFORMER "Ghettoblasta"TITLE "I.O.U."REM COMPOSER ""FILE "01 I.O.U. (Radioedit).wav" WAVE TRACK 01 AUDIO TITLE "I.O.U. (Radioedit)" PERFORMER "Ghettoblasta" REM COMPOSER "" INDEX 01 00:00:00 TRACK 02 AUDIO TITLE "I.O.U. (clubmix)" PERFORMER "Ghettoblasta" REM COMPOSER "" INDEX 00 03:53:37FILE "02 I.O.U. (clubmix).wav" WAVE INDEX 01 00:00:00 TRACK 03 AUDIO TITLE "Get Busy" PERFORMER "Ghettoblasta" REM COMPOSER "" INDEX 00 05:36:72FILE "03 Get Busy.wav" WAVE INDEX 01 00:00:00


[torrentc.info]_t_5609980.torrent
Торрент: Зарегистрирован ·  [ 2018-09-19 20:30 ] ·  ebc86f46618e005667ed2e76a8110125bc4a7afb

18 KB

Статус: проверено
Скачан: 0 раз
Размер: 111 MB
Оценка: 
(Голосов: 0)
Сказали спасибо: 0  Спасибо
Похожие темы
[Профиль]    [ЛС]
Показать сообщения:    
Ответить на тему

Текущее время: Сегодня 10:16

Часовой пояс: GMT + 7



Вы не можете начинать темы
Вы не можете отвечать на сообщения
Вы не можете редактировать свои сообщения
Вы не можете удалять свои сообщения
Вы не можете голосовать в опросах
Вы не можете прикреплять файлы к сообщениям
Вы можете скачивать файлы