[TR24][OF] Rakitiko - La Profecia Pagana - 2018 (Black\'n\'roll | Black Metal)

Ответить на тему
Статистика раздачи [Обновить пиров]
Размер:  378 MB   |    Зарегистрирован:  2 месяца 22 дня   |    Скачан:  0 раз

Полного источника не было: Никогда

 
   
 
 
 
Автор Сообщение

torrentc.info

Создавать темы 19-Сен-2018 11:33

[Цитировать]


Rakitiko

La Profecia Pagana



• Формат файла записи | Источник записи: [TR24][OF]
• Наличие водяных знаков: Нет
• Страна исполнителя: Argentina
• Год издания релиза: 2018
• Жанр: Black Metal | black'n'roll
• Продолжительность: 00:30:17
• WEB bandcamp
• Формат файла: FLAC (*.flac)
• Тип рипа: tracks
• Разрядность: 24/44,1
• Формат файла: WAV (flac.ape.wv)
• Количество каналов: 2.0
• Наличие сканов: front

01 - Un Millon De Muertos (00:03:25)
02 - La Nueva Condicion (00:03:12)
03 - Ayudar a Un Perro (00:05:44)
04 - La Profecia (00:03:53)
05 - Tratando De Llegar (00:03:38)
06 - Veo El Circulo Caer (00:04:02)
07 - El Futuro (Parecia Ser Nuestro) (00:03:07)
08 - Por Quien Vos Siempre Estas (00:03:12)
-

• Замер динамического диапазона •

foobar2000 1.3.9 / Замер динамического диапазона (DR) 1.1.1Дата отчёта: 2018-09-18 14:27:14
--------------------------------------------------------------------------------Анализ: Rakitiko / La Profecia Pagana--------------------------------------------------------------------------------
DR Пики RMS Продолжительность трека--------------------------------------------------------------------------------DR7 0.00 дБ -8.11 дБ 3:26 01-Un Millon De MuertosDR10 0.00 дБ -10.62 дБ 3:13 02-La Nueva CondicionDR7 0.00 дБ -8.54 дБ 5:45 03-Ayudar a Un PerroDR7 0.00 дБ -7.94 дБ 3:54 04-La ProfeciaDR8 0.00 дБ -9.27 дБ 3:38 05-Tratando De LlegarDR8 0.00 дБ -8.71 дБ 4:02 06-Veo El Circulo CaerDR8 0.00 дБ -9.63 дБ 3:07 07-El Futuro (Parecia Ser Nuestro)DR7 0.00 дБ -7.86 дБ 3:13 08-Por Quien Vos Siempre Estas--------------------------------------------------------------------------------
Количество треков: 8Реальные значения DR: DR8
Частота: 44100 ГцКаналов: 2Разрядность: 24Битрейт: 1767 кбит/сКодек: FLAC================================================================================
- -[img]https://i99.fastpic.ru/big/2018/0820/c4/d7d2761493bbbac411f16cce5e5f30c4.png[/img]


[torrentc.info]_t_5615329.torrent
Торрент: Зарегистрирован ·  [ 2018-09-19 11:33 ] ·  0921b817c1da0a9d4df32f819095d9a3c8e21b83

16 KB

Статус: проверено
Скачан: 0 раз
Размер: 378 MB
Оценка: 
(Голосов: 0)
Сказали спасибо: 0  Спасибо
Похожие темы
[Профиль]    [ЛС]
Показать сообщения:    
Ответить на тему

Текущее время: Сегодня 16:07

Часовой пояс: GMT + 7



Вы не можете начинать темы
Вы не можете отвечать на сообщения
Вы не можете редактировать свои сообщения
Вы не можете удалять свои сообщения
Вы не можете голосовать в опросах
Вы не можете прикреплять файлы к сообщениям
Вы можете скачивать файлы