Pokolgép (Pokolgep) - Az utolsó merénylet (Az utolso merenylet) [2012, Heavy Metal, DVD5]

Ответить на тему
Статистика раздачи [Обновить пиров]
Размер:  3.34 GB   |    Зарегистрирован:  1 месяц 4 дня   |    Скачан:  0 раз

Полного источника не было: Никогда

 
   
 
 
 
Автор Сообщение

torrentc.info

Создавать темы 19-Сен-2018 03:38

[Цитировать]

Pokolgép (Pokolgep) - Az utolsó merénylet (Az utolso merenylet)
Страна: Hungary
Жанр: Heavy Metal
Продолжительность: 01:15:44
Год выхода: 2012 (1995)
Лейбл: HMRCDVD 104
Описание:
Kalapács József, a hazai metal élet egyik úttörője 2012. szeptember 14-én ünnepli 50. születésnapját, és 30. előadói jubileumát a Petőfi Csarnokban.
A kerek évfordulóra a Hammer Records újra hozzáférhetővé tette CD-n és DVD-n Kalapács József összes jelenlegi és korábbi zenekarával készült albumát.
Minden kiadvány egységes arculattal, az eredeti borítók felhasználásával, dalszövegekkel, archív fotókkal, sajtóanyagokkal kiegészítve jelenik meg. A kiadványok többségén bónusz dalok, klipek is találhatók - jónéhány igazi ritkaság is előkerült.
Az albumot az 1995. szeptember 2-án megrendezett búcsúkoncerten rögzítették, melyet a zenekar klasszikus felállása adott.
A koncertnek különleges vendégei voltak: Rudán Joe, a zenekar egykori énekese; Paksi Endre, a zenekar egykori tagja aki később az Ossian zenekarral szintén sikeres karriert épített és Gyenizse András, a zenekar egykori dobosa aki korábban a P. Mobil-ban is játszott.
A búcsúkoncerten a Pokolgép legsikeresebb, 1986 és 1990 közötti korszakának legjobb dalait játszották, az ez utáni Rudán Joe érából a Győzd le a gonoszt című dal került be a programba.
Ezek mellett felcsendült még a Vérszívó asszony is, amellyel az 1983-as Ki mit tud?-on először hívta fel magára a figyelmet a zenekar, valamint a Maszk című dal, amely 1985-ben kislemezen jelent meg.
Továbbá eljátszották a Cikusz és rács és A Bűn című számokat is, melyek még az Ős-Pokolgép 1986 előtti korszakának kedvelt darabjai voltak. Ez a két dal Kalapács József 2000-ben megjelent Az első merénylet című lemezén voltak hallhatóak, számos más, előtte kiadatlan Ős-Pokolgép dal mellett.
Az utolsó merénylet az 1995-ben a klasszikus Pokolgép felállással készült élő anyag újrakiadása.
Ős-Pokolgép dalok első hivatalos felvétele, a DVD-n a teljes, eddig csak VHS-en hozzáférhető koncertvideó.
2012-es újrakiadás, digitálisan remasterizált verzió, exkluzív fotókkal kiegészített booklet.
Треклист:
01. Pokoli szinjatek
02. Tovabb
03. Pokolgep
04. Maszk
05. Gep indulo
06. Bon Scott emlekere
07. Itelet helyett
08. Gyozd le a gonoszt
09. Mennyit ersz
10. A jel
11. Cirkusz es racs
12. A bun
13. Itt es most
14. A haboru gyermeke
15. Verszivo asszony
16. Ejfeli harang
17. Mindhalalig rock ’n’ roll

Разбивка на главы по трекам: есть
Качество : DVD5
Формат файла: DVD video
Видео кодек: MPEG2
Аудио кодек: AC3
Видео: MPEG-2, 720 x 576, 25,000 fps
Аудио: AC3, 192 kb/s, 16 bit, 48 kHz, 2 ch

DVDinfo

GeneralComplete name : F:\Pokolgep - Az utolso merenylet (DVD)(2012)\Pokolgep - Az utolso merenylet.jpgFormat : JPEGFile size : 1.18 MiB
ImageFormat : JPEGWidth : 3 000 pixelsHeight : 2 000 pixelsColor space : YUVChroma subsampling : 4:2:0Bit depth : 8 bitsCompression mode : LossyStream size : 1.18 MiB (100%)
GeneralComplete name : F:\Pokolgep - Az utolso merenylet (DVD)(2012)\VIDEO_TS\VIDEO_TS.BUPFormat : DVD VideoFormat profile : MenuFile size : 14.0 KiBOverall bit rate mode : VariableFileExtension_Invalid : ifo
VideoID : 224 (0xE0)Format : MPEG VideoFormat version : Version 2Bit rate mode : VariableWidth : 720 pixelsHeight : 576 pixelsDisplay aspect ratio : 4:3Frame rate : 25.000 FPSStandard : PALCompression mode : Lossy
AudioFormat : PCMChannel(s) : 2 channelsSampling rate : 48.0 kHz
TextFormat : RLEFormat/Info : Run-length encodingBit depth : 2 bits
GeneralComplete name : F:\Pokolgep - Az utolso merenylet (DVD)(2012)\VIDEO_TS\VIDEO_TS.IFOFormat : DVD VideoFormat profile : MenuFile size : 14.0 KiBOverall bit rate mode : Variable
VideoID : 224 (0xE0)Format : MPEG VideoFormat version : Version 2Bit rate mode : VariableWidth : 720 pixelsHeight : 576 pixelsDisplay aspect ratio : 4:3Frame rate : 25.000 FPSStandard : PALCompression mode : Lossy
AudioFormat : PCMChannel(s) : 2 channelsSampling rate : 48.0 kHz
TextFormat : RLEFormat/Info : Run-length encodingBit depth : 2 bits
GeneralComplete name : F:\Pokolgep - Az utolso merenylet (DVD)(2012)\VIDEO_TS\VIDEO_TS.VOBFormat : MPEG-PSFile size : 288 KiBDuration : 1 s 240 msOverall bit rate mode : VariableOverall bit rate : 1 903 kb/s
VideoID : 224 (0xE0)Format : MPEG VideoFormat version : Version 2Format profile : Main@MainFormat settings, BVOP : NoFormat settings, Matrix : DefaultFormat settings, GOP : N=1Format settings, picture structure : FrameDuration : 1 s 240 msBit rate mode : VariableBit rate : 1 865 kb/sMaximum bit rate : 8 000 kb/sWidth : 720 pixelsHeight : 576 pixelsDisplay aspect ratio : 4:3Frame rate : 25.000 FPSStandard : PALColor space : YUVChroma subsampling : 4:2:0Bit depth : 8 bitsScan type : InterlacedScan order : Bottom Field FirstCompression mode : LossyBits/(Pixel*Frame) : 0.180Stream size : 282 KiB (98%)Color primaries : BT.601 PALTransfer characteristics : BT.470 System B/GMatrix coefficients : BT.470 System B/G
Menu
GeneralComplete name : F:\Pokolgep - Az utolso merenylet (DVD)(2012)\VIDEO_TS\VTS_01_0.BUPFormat : DVD VideoFormat profile : ProgramFile size : 68.0 KiBDuration : 1 h 15 minOverall bit rate mode : VariableOverall bit rate : 123 b/sFileExtension_Invalid : ifo
VideoID : 224 (0xE0)Format : MPEG VideoFormat version : Version 2Duration : 1 h 15 minBit rate mode : VariableWidth : 720 pixelsHeight : 576 pixelsDisplay aspect ratio : 4:3Frame rate : 25.000 FPSStandard : PALCompression mode : Lossy
AudioID : 128 (0x80)Format : AC-3Format/Info : Audio Coding 3Duration : 1 h 15 minChannel(s) : 2 channelsSampling rate : 48.0 kHzCompression mode : Lossy
MenuDuration : 1 h 15 min00:00:00.000 : Chapter 100:00:14.720 : Chapter 200:04:13.480 : Chapter 300:07:32.920 : Chapter 400:10:52.720 : Chapter 500:14:35.280 : Chapter 600:19:30.480 : Chapter 700:22:23.920 : Chapter 800:27:27.520 : Chapter 900:31:49.520 : Chapter 1000:35:59.600 : Chapter 1100:40:05.360 : Chapter 1200:44:26.080 : Chapter 1300:47:07.000 : Chapter 1400:52:16.480 : Chapter 1500:57:13.800 : Chapter 1601:04:54.200 : Chapter 1701:10:54.520 : Chapter 18List (Audio) : 0
GeneralComplete name : F:\Pokolgep - Az utolso merenylet (DVD)(2012)\VIDEO_TS\VTS_01_0.IFOFormat : DVD VideoFormat profile : ProgramFile size : 68.0 KiBDuration : 1 h 15 minOverall bit rate mode : VariableOverall bit rate : 123 b/s
VideoID : 224 (0xE0)Format : MPEG VideoFormat version : Version 2Duration : 1 h 15 minBit rate mode : VariableWidth : 720 pixelsHeight : 576 pixelsDisplay aspect ratio : 4:3Frame rate : 25.000 FPSStandard : PALCompression mode : Lossy
AudioID : 128 (0x80)Format : AC-3Format/Info : Audio Coding 3Duration : 1 h 15 minChannel(s) : 2 channelsSampling rate : 48.0 kHzCompression mode : Lossy
MenuDuration : 1 h 15 min00:00:00.000 : Chapter 100:00:14.720 : Chapter 200:04:13.480 : Chapter 300:07:32.920 : Chapter 400:10:52.720 : Chapter 500:14:35.280 : Chapter 600:19:30.480 : Chapter 700:22:23.920 : Chapter 800:27:27.520 : Chapter 900:31:49.520 : Chapter 1000:35:59.600 : Chapter 1100:40:05.360 : Chapter 1200:44:26.080 : Chapter 1300:47:07.000 : Chapter 1400:52:16.480 : Chapter 1500:57:13.800 : Chapter 1601:04:54.200 : Chapter 1701:10:54.520 : Chapter 18List (Audio) : 0
GeneralComplete name : F:\Pokolgep - Az utolso merenylet (DVD)(2012)\VIDEO_TS\VTS_01_0.VOBFormat : MPEG-PSFile size : 1.11 MiBDuration : 520 msOverall bit rate mode : VariableOverall bit rate : 17.9 Mb/s
VideoID : 224 (0xE0)Format : MPEG VideoFormat version : Version 2Format profile : Main@MainFormat settings : BVOPFormat settings, BVOP : YesFormat settings, Matrix : DefaultFormat settings, GOP : VariableDuration : 520 msBit rate mode : VariableMaximum bit rate : 9 500 kb/sWidth : 720 pixelsHeight : 576 pixelsDisplay aspect ratio : 4:3Frame rate : 25.000 FPSStandard : PALColor space : YUVChroma subsampling : 4:2:0Bit depth : 8 bitsScan type : ProgressiveCompression mode : LossyTime code of first frame : 00:00:00:00Time code source : Group of pictures headerGOP, Open/Closed : Closed
TextID : 189 (0xBD)-32 (0x20)Format : RLEFormat/Info : Run-length encodingMuxing mode : DVD-Video
Menu
GeneralComplete name : F:\Pokolgep - Az utolso merenylet (DVD)(2012)\VIDEO_TS\VTS_01_1.VOBFormat : MPEG-PSFile size : 1 000 MiBDuration : 22 min 6 sOverall bit rate mode : VariableOverall bit rate : 6 324 kb/s
VideoID : 224 (0xE0)Format : MPEG VideoFormat version : Version 2Format profile : Main@MainFormat settings : BVOPFormat settings, BVOP : YesFormat settings, Matrix : DefaultFormat settings, GOP : M=3, N=12Format settings, picture structure : FrameDuration : 22 min 6 sBit rate mode : VariableBit rate : 6 006 kb/sMaximum bit rate : 9 500 kb/sWidth : 720 pixelsHeight : 576 pixelsDisplay aspect ratio : 4:3Frame rate : 25.000 FPSStandard : PALColor space : YUVChroma subsampling : 4:2:0Bit depth : 8 bitsScan type : InterlacedScan order : Bottom Field FirstCompression mode : LossyBits/(Pixel*Frame) : 0.579Time code of first frame : 00:00:00:00Time code source : Group of pictures headerGOP, Open/Closed : OpenGOP, Open/Closed of first frame : ClosedStream size : 950 MiB (95%)
AudioID : 189 (0xBD)-128 (0x80)Format : AC-3Format/Info : Audio Coding 3Muxing mode : DVD-VideoDuration : 22 min 6 sBit rate mode : ConstantBit rate : 192 kb/sChannel(s) : 2 channelsChannel positions : Front: L RSampling rate : 48.0 kHzFrame rate : 31.250 FPS (1536 SPF)Bit depth : 16 bitsCompression mode : LossyStream size : 30.4 MiB (3%)Service kind : Complete Main
Menu
GeneralComplete name : F:\Pokolgep - Az utolso merenylet (DVD)(2012)\VIDEO_TS\VTS_01_2.VOBFormat : MPEG-PSFile size : 1 000 MiBDuration : 22 min 8 sOverall bit rate mode : VariableOverall bit rate : 6 314 kb/s
VideoID : 224 (0xE0)Format : MPEG VideoFormat version : Version 2Format profile : Main@MainFormat settings : BVOPFormat settings, BVOP : YesFormat settings, Matrix : DefaultFormat settings, GOP : M=3, N=12Format settings, picture structure : FrameDuration : 22 min 8 sBit rate mode : VariableBit rate : 5 996 kb/sMaximum bit rate : 9 500 kb/sWidth : 720 pixelsHeight : 576 pixelsDisplay aspect ratio : 4:3Frame rate : 25.000 FPSStandard : PALColor space : YUVChroma subsampling : 4:2:0Bit depth : 8 bitsScan type : InterlacedScan order : Bottom Field FirstCompression mode : LossyBits/(Pixel*Frame) : 0.578Time code of first frame : 00:22:06:14Time code source : Group of pictures headerStream size : 950 MiB (95%)
AudioID : 189 (0xBD)-128 (0x80)Format : AC-3Format/Info : Audio Coding 3Muxing mode : DVD-VideoDuration : 22 min 8 sBit rate mode : ConstantBit rate : 192 kb/sChannel(s) : 2 channelsChannel positions : Front: L RSampling rate : 48.0 kHzFrame rate : 31.250 FPS (1536 SPF)Bit depth : 16 bitsCompression mode : LossyDelay relative to video : -432 msStream size : 30.4 MiB (3%)Service kind : Complete Main
Menu
GeneralComplete name : F:\Pokolgep - Az utolso merenylet (DVD)(2012)\VIDEO_TS\VTS_01_3.VOBFormat : MPEG-PSFile size : 1 000 MiBDuration : 22 min 9 sOverall bit rate mode : VariableOverall bit rate : 6 310 kb/s
VideoID : 224 (0xE0)Format : MPEG VideoFormat version : Version 2Format profile : Main@MainFormat settings : BVOPFormat settings, BVOP : YesFormat settings, Matrix : DefaultFormat settings, GOP : M=3, N=12Format settings, picture structure : FrameDuration : 22 min 9 sBit rate mode : VariableBit rate : 5 992 kb/sMaximum bit rate : 9 500 kb/sWidth : 720 pixelsHeight : 576 pixelsDisplay aspect ratio : 4:3Frame rate : 25.000 FPSStandard : PALColor space : YUVChroma subsampling : 4:2:0Bit depth : 8 bitsScan type : InterlacedScan order : Bottom Field FirstCompression mode : LossyBits/(Pixel*Frame) : 0.578Time code of first frame : 00:44:15:09Time code source : Group of pictures headerGOP, Open/Closed : OpenStream size : 949 MiB (95%)
AudioID : 189 (0xBD)-128 (0x80)Format : AC-3Format/Info : Audio Coding 3Muxing mode : DVD-VideoDuration : 22 min 9 sBit rate mode : ConstantBit rate : 192 kb/sChannel(s) : 2 channelsChannel positions : Front: L RSampling rate : 48.0 kHzFrame rate : 31.250 FPS (1536 SPF)Bit depth : 16 bitsCompression mode : LossyDelay relative to video : -528 msStream size : 30.4 MiB (3%)Service kind : Complete Main
Menu
GeneralComplete name : F:\Pokolgep - Az utolso merenylet (DVD)(2012)\VIDEO_TS\VTS_01_4.VOBFormat : MPEG-PSFile size : 417 MiBDuration : 9 min 19 sOverall bit rate mode : VariableOverall bit rate : 6 253 kb/s
VideoID : 224 (0xE0)Format : MPEG VideoFormat version : Version 2Format profile : Main@MainFormat settings : BVOPFormat settings, BVOP : YesFormat settings, Matrix : DefaultFormat settings, GOP : M=3, N=12Format settings, picture structure : FrameDuration : 9 min 18 sBit rate mode : VariableBit rate : 5 936 kb/sMaximum bit rate : 9 500 kb/sWidth : 720 pixelsHeight : 576 pixelsDisplay aspect ratio : 4:3Frame rate : 25.000 FPSStandard : PALColor space : YUVChroma subsampling : 4:2:0Bit depth : 8 bitsScan type : InterlacedScan order : Bottom Field FirstCompression mode : LossyBits/(Pixel*Frame) : 0.573Time code of first frame : 01:06:24:16Time code source : Group of pictures headerStream size : 396 MiB (95%)
AudioID : 189 (0xBD)-128 (0x80)Format : AC-3Format/Info : Audio Coding 3Muxing mode : DVD-VideoDuration : 9 min 19 sBit rate mode : ConstantBit rate : 192 kb/sChannel(s) : 2 channelsChannel positions : Front: L RSampling rate : 48.0 kHzFrame rate : 31.250 FPS (1536 SPF)Bit depth : 16 bitsCompression mode : LossyDelay relative to video : -336 msStream size : 12.8 MiB (3%)Service kind : Complete Main
Menu

Скриншоты меню


Скриншоты






[torrentc.info]_t_5586342.torrent
Торрент: Зарегистрирован ·  [ 2018-09-19 03:38 ] ·  fff6631e8c76e23f952798eb7ce4340fbe6991dc

18 KB

Статус: проверено
Скачан: 0 раз
Размер: 3.34 GB
Оценка: 
(Голосов: 0)
Сказали спасибо: 0  Спасибо
Похожие темы
[Профиль]    [ЛС]
Показать сообщения:    
Ответить на тему

Текущее время: Сегодня 06:41

Часовой пояс: GMT + 7



Вы не можете начинать темы
Вы не можете отвечать на сообщения
Вы не можете редактировать свои сообщения
Вы не можете удалять свои сообщения
Вы не можете голосовать в опросах
Вы не можете прикреплять файлы к сообщениям
Вы можете скачивать файлы