(Modern Classical, Contemporary) [CD] Daniel Lentz - The Crack In The Bell - 1987, FLAC (tracks+.cue), lossless

Ответить на тему
Статистика раздачи [Обновить пиров]
Размер:  254 MB   |    Зарегистрирован:  1 месяц 27 дней   |    Скачан:  0 раз

Полного источника не было: Никогда

 
   
 
 
 
Автор Сообщение

torrentc.info

Создавать темы 18-Сен-2018 21:07

[Цитировать]

Daniel Lentz / The Crack In The Bell
[img=right]https://i103.fastpic.ru/big/2018/0913/2d/590d1bff8e...93f62d.jpg[/img]
Жанр: Modern Classical, Contemporary
Носитель: CD
Страна-производитель диска (релиза): US
Год издания: 1987
Издатель (лейбл): Angel Records ‎
Номер по каталогу: CDC 49180
Аудиокодек: FLAC (*.flac)
Тип рипа: tracks+.cue
Битрейт аудио: lossless
Продолжительность: 00:52:55
Источник (релизер): локальная сеть
Наличие сканов в содержимом раздачи: нет
Треклист:
1 The Crack In The Bell 13:52
2 Wild Turkeys 15:47
3 The Dream King 5:29
4 Lullaby 10:01
5 Adieu 7:34

Лог создания рипа

X Lossless Decoder version 20161007 (149.3)
XLD extraction logfile from 2017-04-13 14:49:47 -0700
Daniel Lentz / Crack in the Bell, The
Used drive : (null) (null) (revision (null))Media type : Pressed CD
Ripper mode : XLD Secure RipperDisable audio cache : OK for the drive with a cache less than 1375KiBMake use of C2 pointers : NORead offset correction : 0Max retry count : 20Gap status : Analyzed, Appended (except HTOA)
TOC of the extracted CD Track | Start | Length | Start sector | End sector --------------------------------------------------------- 1 | 00:00:00 | 13:57:65 | 0 | 62839 2 | 13:57:65 | 15:49:45 | 62840 | 134059 3 | 29:47:35 | 05:32:12 | 134060 | 158971 4 | 35:19:47 | 10:03:35 | 158972 | 204231 5 | 45:23:07 | 07:34:23 | 204232 | 238304
List of alternate offset correction values # | Absolute | Relative | Confidence ------------------------------------------ 1 | 6 | 6 | 1
AccurateRip Summary (DiscID: 000c2ec9-00372813-450c6905) Track 01 : OK (v2, confidence 1/1, with different offset) Track 02 : OK (v2, confidence 1/1, with different offset) Track 03 : OK (v2, confidence 1/1, with different offset) Track 04 : OK (v2, confidence 1/1, with different offset) Track 05 : OK (v2, confidence 1/1, with different offset) ->All tracks accurately ripped.
All Tracks Statistics Read error : 0 Jitter error (maybe fixed) : 0 Retry sector count : 0 Damaged sector count : 0
Track 01 Filename : /Users/user/Desktop/rips/01 Daniel Lentz - The Crack in the Bell.flac Pre-gap length : 00:02:00
CRC32 hash : 4C600911 CRC32 hash (skip zero) : 69791641 AccurateRip v1 signature : 64FEB09D AccurateRip v2 signature : 0FD81894 (9A88E356 w/correction) ->Accurately ripped with different offset (v2, confidence 1/1, offset +6) Statistics Read error : 0 Jitter error (maybe fixed) : 0 Retry sector count : 0 Damaged sector count : 0
Track 02 Filename : /Users/user/Desktop/rips/02 Daniel Lentz - Wild Turkeys.flac Pre-gap length : 00:03:20
CRC32 hash : C4010A56 CRC32 hash (skip zero) : D04C4A32 AccurateRip v1 signature : 53FB6978 AccurateRip v2 signature : 5C768C47 (69B5F4E8 w/correction) ->Accurately ripped with different offset (v2, confidence 1/1, offset +6) Statistics Read error : 0 Jitter error (maybe fixed) : 0 Retry sector count : 0 Damaged sector count : 0
Track 03 Filename : /Users/user/Desktop/rips/03 Daniel Lentz - The Dream King.flac Pre-gap length : 00:02:65
CRC32 hash : C5F67463 CRC32 hash (skip zero) : 085694FD AccurateRip v1 signature : 124367EB AccurateRip v2 signature : 78967484 (6A65AA1D w/correction) ->Accurately ripped with different offset (v2, confidence 1/1, offset +6) Statistics Read error : 0 Jitter error (maybe fixed) : 0 Retry sector count : 0 Damaged sector count : 0
Track 04 Filename : /Users/user/Desktop/rips/04 Daniel Lentz - Lullaby.flac Pre-gap length : 00:02:32
CRC32 hash : 5287B6DA CRC32 hash (skip zero) : 03F0A0B8 AccurateRip v1 signature : A0527207 AccurateRip v2 signature : F76073EF (0B894458 w/correction) ->Accurately ripped with different offset (v2, confidence 1/1, offset +6) Statistics Read error : 0 Jitter error (maybe fixed) : 0 Retry sector count : 0 Damaged sector count : 0
Track 05 Filename : /Users/user/Desktop/rips/05 Daniel Lentz - Adieu.flac Pre-gap length : 00:02:45
CRC32 hash : 29036984 CRC32 hash (skip zero) : 16FF7537 AccurateRip v1 signature : 7E5CB39C AccurateRip v2 signature : 10843262 (48CEFD4F w/correction) ->Accurately ripped with different offset (v2, confidence 1/1, offset +6) Statistics Read error : 0 Jitter error (maybe fixed) : 0 Retry sector count : 0 Damaged sector count : 0
No errors occurred
End of status report

Содержание индексной карты (.CUE)

TITLE "Crack in the Bell, The"PERFORMER "Daniel Lentz"REM GENRE "classical"REM DATE "1987"REM DISCID 450C6905FILE "01 Daniel Lentz - The Crack in the Bell.flac" WAVE TRACK 01 AUDIO TITLE "The Crack in the Bell" SONGWRITER "Daniel Lentz" INDEX 01 00:00:00 TRACK 02 AUDIO TITLE "Wild Turkeys" SONGWRITER "Daniel Lentz" INDEX 00 13:54:45FILE "02 Daniel Lentz - Wild Turkeys.flac" WAVE INDEX 01 00:00:00 TRACK 03 AUDIO TITLE "The Dream King" SONGWRITER "Daniel Lentz" INDEX 00 15:46:55FILE "03 Daniel Lentz - The Dream King.flac" WAVE INDEX 01 00:00:00 TRACK 04 AUDIO TITLE "Lullaby" SONGWRITER "Daniel Lentz" INDEX 00 05:29:55FILE "04 Daniel Lentz - Lullaby.flac" WAVE INDEX 01 00:00:00 TRACK 05 AUDIO TITLE "Adieu" SONGWRITER "Daniel Lentz" INDEX 00 10:00:65FILE "05 Daniel Lentz - Adieu.flac" WAVE INDEX 01 00:00:00


[torrentc.info]_t_5613104.torrent
Торрент: Зарегистрирован ·  [ 2018-09-18 21:02 ] ·  f077ad7d6304ce06a6ef2cfbcc2853b5f77ba51b

21 KB

Статус: проверено
Скачан: 0 раз
Размер: 254 MB
Оценка: 
(Голосов: 0)
Сказали спасибо: 0  Спасибо
Похожие темы
[Профиль]    [ЛС]
Показать сообщения:    
Ответить на тему

Текущее время: Сегодня 12:29

Часовой пояс: GMT + 7



Вы не можете начинать темы
Вы не можете отвечать на сообщения
Вы не можете редактировать свои сообщения
Вы не можете удалять свои сообщения
Вы не можете голосовать в опросах
Вы не можете прикреплять файлы к сообщениям
Вы можете скачивать файлы