(Acid Jazz) [CD] Corduroy - London, England. - 2001, FLAC (tracks+.cue), lossless

Ответить на тему
Статистика раздачи [Обновить пиров]
Размер:  1 GB   |    Зарегистрирован:  1 месяц 27 дней   |    Скачан:  0 раз

Полного источника не было: Никогда

 
   
 
 
 
Автор Сообщение

torrentc.info

Создавать темы 18-Сен-2018 21:06

[Цитировать]

Corduroy / London, England.
Жанр: Acid Jazz
Носитель: CD
Страна-производитель диска (релиза): England
Год издания: 2001
Издатель (лейбл): Castle Music
Номер по каталогу: 052
Страна исполнителя (группы): England
Аудиокодек: FLAC (*.flac)
Тип рипа: tracks+.cue
Битрейт аудио: lossless
Продолжительность: 2:37:15
Источник (релизер): http://grapher-music.blogspot.com
Наличие сканов в содержимом раздачи: да
Треклист:
DISC 1
from Dad Man Cat LP:
1. Chow Down 4.26
2. Long Cool & Bubbly 4 23
3. The Girl Who Was Death 4.42
4. How To Steal The World 4 02
5. Electric Soup 4.59 6. Pony Tail 4 58
7. Harry Palmer 4.08
8. E-Type 4 29
9. Skirt Alert 3.32
10. Six Plus One 3.02
11. Money Is 4.38
from The Frighteners single: 12.10.28 From Shibuya 3.05
from High Havoc LP:
13. High Havoc 4.10 14. London, England 3.23
15. The Corduroy Orgasm Club 1 45
16. The Frighteners 5.08
17. You're A Great Way To Fly 2.36
18. Something In My Eye (featuring Sherine) 3 22
19. Lovely Lonely And Loaded 4.05
20. One Born Every Minute 4.51
DISC 2
from High Havoc LP:
1. Follow That Arab 4.52
2. Nobody Move 2.27
3. Very Yesh 5.03
from Out Of Here LP:
4. Don't Wait For Monday 4.29
5. Practice What You Preach 4.21
6. End Of The Rainbow 4.07
7. Out Of Here 3.49
8. The Diceman 3.32
9. Magic Carpet 3.48 10. January Woman 4.28
11. Mini 4.00
12. Along The Rooftops 2 54 13. Ayrton Senna 3 16
14. Motorhead 2.32
15. Summer In My Eye (previously unissued) 4.31 16. Emanuelle In The Jaws Of The Dragon 4.30
from The New You LP:
17. Evolver3.12
18. The Joker Is Wild 3.06
from Clik! LP:
19. The Addison Tapes 5.33 20. Moshi Moshi 2 59

Лог создания рипа

Exact Audio Copy V1.0 beta 3 from 29. August 2011
EAC extraction logfile from 5. March 2012, 21:26
Corduroy / London, England (Disc 1)
Used drive : PIONEER DVD-RW DVR-116D Adapter: 5 ID: 1
Read mode : SecureUtilize accurate stream : YesDefeat audio cache : YesMake use of C2 pointers : No
Read offset correction : 96Overread into Lead-In and Lead-Out : NoFill up missing offset samples with silence : YesDelete leading and trailing silent blocks : NoNull samples used in CRC calculations : YesUsed interface : Native Win32 interface for Win NT & 2000Gap handling : Appended to previous track
Used output format : User Defined EncoderSelected bitrate : 1024 kBit/sQuality : HighAdd ID3 tag : NoCommand line compressor : C:\Program Files\Exact Audio Copy\FLAC\FLAC.EXEAdditional command line options : -8 -V -T "ARTIST=%artist%" -T "TITLE=%title%" -T "ALBUM=%albumtitle%" -T "DATE=%year%" -T "TRACKNUMBER=%tracknr%" -T "GENRE=%genre%" -T "PERFORMER=%albuminterpret%" -T "COMPOSER=%composer%" %haslyrics%--tag-from-file=LYRICS="%lyricsfile%"%haslyrics% -T "ALBUMARTIST=%albumartist%" -T "DISCNUMBER=%cdnumber%" -T "TOTALDISCS=%totalcds%" -T "TOTALTRACKS=%numtracks%" -T "COMMENT=%comment%" %source% -o %dest%
TOC of the extracted CD
Track | Start | Length | Start sector | End sector --------------------------------------------------------- 1 | 0:00.00 | 4:26.36 | 0 | 19985 2 | 4:26.36 | 4:22.72 | 19986 | 39707 3 | 8:49.33 | 4:42.05 | 39708 | 60862 4 | 13:31.38 | 4:02.43 | 60863 | 79055 5 | 17:34.06 | 5:00.12 | 79056 | 101567 6 | 22:34.18 | 4:57.57 | 101568 | 123899 7 | 27:32.00 | 4:08.15 | 123900 | 142514 8 | 31:40.15 | 4:28.62 | 142515 | 162676 9 | 36:09.02 | 3:31.40 | 162677 | 178541 10 | 39:40.42 | 3:02.35 | 178542 | 192226 11 | 42:43.02 | 4:37.40 | 192227 | 213041 12 | 47:20.42 | 3:07.07 | 213042 | 227073 13 | 50:27.49 | 4:10.01 | 227074 | 245824 14 | 54:37.50 | 3:22.73 | 245825 | 261047 15 | 58:00.48 | 1:46.21 | 261048 | 269018 16 | 59:46.69 | 5:09.30 | 269019 | 292223 17 | 64:56.24 | 2:37.30 | 292224 | 304028 18 | 67:33.54 | 3:23.23 | 304029 | 319276 19 | 70:57.02 | 4:05.30 | 319277 | 337681 20 | 75:02.32 | 4:50.57 | 337682 | 359488
Track 1
Filename F:\Muzak - FLAC New\Corduroy - London, England (2001) FLAC\01 - Chow Down.wav
Pre-gap length 0:00:02.00
Peak level 96.6 % Extraction speed 4.8 X Track quality 100.0 % Test CRC D9D31B20 Copy CRC D9D31B20 Accurately ripped (confidence 5) [BF827DCF] (AR v1) Copy OK
Track 2
Filename F:\Muzak - FLAC New\Corduroy - London, England (2001) FLAC\02 - Long Cool & Bubbly.wav
Peak level 96.6 % Extraction speed 4.7 X Track quality 99.9 % Test CRC A2BB45CF Copy CRC A2BB45CF Accurately ripped (confidence 5) [E55A05C6] (AR v1) Copy OK
Track 3
Filename F:\Muzak - FLAC New\Corduroy - London, England (2001) FLAC\03 - The Girl Who Was Death.wav
Peak level 96.6 % Extraction speed 5.7 X Track quality 100.0 % Test CRC 128FFD77 Copy CRC 128FFD77 Accurately ripped (confidence 5) [96D12EC0] (AR v1) Copy OK
Track 4
Filename F:\Muzak - FLAC New\Corduroy - London, England (2001) FLAC\04 - How To Steal The World.wav
Peak level 96.6 % Extraction speed 6.0 X Track quality 100.0 % Test CRC 8DFB0245 Copy CRC 8DFB0245 Accurately ripped (confidence 5) [20E72EDC] (AR v1) Copy OK
Track 5
Filename F:\Muzak - FLAC New\Corduroy - London, England (2001) FLAC\05 - Electric Soup.wav
Pre-gap length 0:00:00.29
Peak level 96.6 % Extraction speed 6.5 X Track quality 100.0 % Test CRC 373C8028 Copy CRC 373C8028 Accurately ripped (confidence 5) [08C93AD0] (AR v1) Copy OK
Track 6
Filename F:\Muzak - FLAC New\Corduroy - London, England (2001) FLAC\06 - Pony Tail.wav
Pre-gap length 0:00:00.25
Peak level 96.6 % Extraction speed 6.9 X Track quality 100.0 % Test CRC 1BAF85F1 Copy CRC 1BAF85F1 Accurately ripped (confidence 5) [E12CB85B] (AR v1) Copy OK
Track 7
Filename F:\Muzak - FLAC New\Corduroy - London, England (2001) FLAC\07 - Harry Palmer.wav
Peak level 96.6 % Extraction speed 7.0 X Track quality 100.0 % Test CRC EC2C2267 Copy CRC EC2C2267 Accurately ripped (confidence 5) [D6A0BEB8] (AR v1) Copy OK
Track 8
Filename F:\Muzak - FLAC New\Corduroy - London, England (2001) FLAC\08 - E-Type.wav
Peak level 96.6 % Extraction speed 7.3 X Track quality 100.0 % Test CRC 726D0756 Copy CRC 726D0756 Accurately ripped (confidence 5) [EB36814F] (AR v1) Copy OK
Track 9
Filename F:\Muzak - FLAC New\Corduroy - London, England (2001) FLAC\09 - Skirt Alert.wav
Peak level 96.6 % Extraction speed 7.3 X Track quality 100.0 % Test CRC 387A5FA8 Copy CRC 387A5FA8 Accurately ripped (confidence 5) [43D9DFC2] (AR v1) Copy OK
Track 10
Filename F:\Muzak - FLAC New\Corduroy - London, England (2001) FLAC\10 - Six Plus One.wav
Peak level 96.6 % Extraction speed 7.3 X Track quality 100.0 % Test CRC 1BC69650 Copy CRC 1BC69650 Accurately ripped (confidence 5) [4BDCB0F3] (AR v1) Copy OK
Track 11
Filename F:\Muzak - FLAC New\Corduroy - London, England (2001) FLAC\11 - Money Is.wav
Peak level 96.6 % Extraction speed 7.2 X Track quality 99.9 % Test CRC F8768812 Copy CRC F8768812 Accurately ripped (confidence 5) [2791A08E] (AR v1) Copy OK
Track 12
Filename F:\Muzak - FLAC New\Corduroy - London, England (2001) FLAC\12 - 10-28 from Shibuya.wav
Peak level 96.6 % Extraction speed 7.7 X Track quality 100.0 % Test CRC 58AEA8C1 Copy CRC 58AEA8C1 Accurately ripped (confidence 5) [A619FE59] (AR v1) Copy OK
Track 13
Filename F:\Muzak - FLAC New\Corduroy - London, England (2001) FLAC\13 - High Havoc.wav
Pre-gap length 0:00:01.68
Peak level 96.6 % Extraction speed 7.4 X Track quality 99.9 % Test CRC BA3C435A Copy CRC BA3C435A Accurately ripped (confidence 5) [FAE77D7F] (AR v1) Copy OK
Track 14
Filename F:\Muzak - FLAC New\Corduroy - London, England (2001) FLAC\14 - London, England.wav
Pre-gap length 0:00:00.36
Peak level 96.6 % Extraction speed 8.2 X Track quality 100.0 % Test CRC B96657BC Copy CRC B96657BC Accurately ripped (confidence 5) [D73BED08] (AR v1) Copy OK
Track 15
Filename F:\Muzak - FLAC New\Corduroy - London, England (2001) FLAC\15 - The Corduroy Orgasm Club.wav
Pre-gap length 0:00:00.32
Peak level 96.6 % Extraction speed 7.4 X Track quality 100.0 % Test CRC F3DAD848 Copy CRC F3DAD848 Accurately ripped (confidence 5) [5697773C] (AR v1) Copy OK
Track 16
Filename F:\Muzak - FLAC New\Corduroy - London, England (2001) FLAC\16 - The Frighteners.wav
Pre-gap length 0:00:00.98
Peak level 96.6 % Extraction speed 8.1 X Track quality 99.9 % Test CRC C6F19822 Copy CRC C6F19822 Accurately ripped (confidence 5) [B5B20E34] (AR v1) Copy OK
Track 17
Filename F:\Muzak - FLAC New\Corduroy - London, England (2001) FLAC\17 - You're A Great Way To Fly.wav
Pre-gap length 0:00:01.16
Peak level 96.6 % Extraction speed 8.1 X Track quality 100.0 % Test CRC A32C4434 Copy CRC A32C4434 Accurately ripped (confidence 5) [54AC1D1B] (AR v1) Copy OK
Track 18
Filename F:\Muzak - FLAC New\Corduroy - London, England (2001) FLAC\18 - Something In My Eye (Featuring Sherine).wav
Pre-gap length 0:00:01.01
Peak level 96.6 % Extraction speed 8.7 X Track quality 100.0 % Test CRC 81F5E79F Copy CRC 81F5E79F Accurately ripped (confidence 5) [62C804E8] (AR v1) Copy OK
Track 19
Filename F:\Muzak - FLAC New\Corduroy - London, England (2001) FLAC\19 - Lovely Lonely And Loaded.wav
Pre-gap length 0:00:00.89
Peak level 96.6 % Extraction speed 9.2 X Track quality 100.0 % Test CRC B0FF9C94 Copy CRC B0FF9C94 Accurately ripped (confidence 5) [EEAC6392] (AR v1) Copy OK
Track 20
Filename F:\Muzak - FLAC New\Corduroy - London, England (2001) FLAC\20 - One Born Every Minute.wav
Pre-gap length 0:00:00.32
Peak level 96.6 % Extraction speed 7.1 X Track quality 99.8 % Test CRC FAF56684 Copy CRC FAF56684 Accurately ripped (confidence 5) [0D377B97] (AR v1) Copy OK
All tracks accurately ripped
No errors occurred
End of status report
---- CUETools DB Plugin V2.1.3
[CTDB TOCID: mlwL9dxHshZ5ZIwFWpFnW2mt860-] disk not present in database, Submit result: mlwL9dxHshZ5ZIwFWpFnW2mt860- has been uploaded
==== Log checksum 9652EFA0A522803627C78CA5EFC936FDECD739AF9ED764AA0BA3E94CB13BAA70 ====

Содержание индексной карты (.CUE)

REM GENRE "Acid Jazz"REM DATE 2001REM DISCID 3212B914REM COMMENT "ExactAudioCopy v1.0b3"PERFORMER "Corduroy"TITLE "London, England (Disc 1)"FILE "01 - Chow Down.wav" WAVE TRACK 01 AUDIO TITLE "Chow Down" PERFORMER "Corduroy" INDEX 01 00:00:00FILE "02 - Long Cool & Bubbly.wav" WAVE TRACK 02 AUDIO TITLE "Long Cool & Bubbly" PERFORMER "Corduroy" INDEX 01 00:00:00FILE "03 - The Girl Who Was Death.wav" WAVE TRACK 03 AUDIO TITLE "The Girl Who Was Death" PERFORMER "Corduroy" INDEX 01 00:00:00FILE "04 - How To Steal The World.wav" WAVE TRACK 04 AUDIO TITLE "How To Steal The World" PERFORMER "Corduroy" INDEX 01 00:00:00 TRACK 05 AUDIO TITLE "Electric Soup" PERFORMER "Corduroy" INDEX 00 04:02:21FILE "05 - Electric Soup.wav" WAVE INDEX 01 00:00:00 TRACK 06 AUDIO TITLE "Pony Tail" PERFORMER "Corduroy" INDEX 00 04:59:68FILE "06 - Pony Tail.wav" WAVE INDEX 01 00:00:00FILE "07 - Harry Palmer.wav" WAVE TRACK 07 AUDIO TITLE "Harry Palmer" PERFORMER "Corduroy" INDEX 01 00:00:00FILE "08 - E-Type.wav" WAVE TRACK 08 AUDIO TITLE "E-Type" PERFORMER "Corduroy" INDEX 01 00:00:00FILE "09 - Skirt Alert.wav" WAVE TRACK 09 AUDIO TITLE "Skirt Alert" PERFORMER "Corduroy" INDEX 01 00:00:00FILE "10 - Six Plus One.wav" WAVE TRACK 10 AUDIO TITLE "Six Plus One" PERFORMER "Corduroy" INDEX 01 00:00:00FILE "11 - Money Is.wav" WAVE TRACK 11 AUDIO TITLE "Money Is" PERFORMER "Corduroy" INDEX 01 00:00:00FILE "12 - 10-28 from Shibuya.wav" WAVE TRACK 12 AUDIO TITLE "10:28 from Shibuya" PERFORMER "Corduroy" INDEX 01 00:00:00 TRACK 13 AUDIO TITLE "High Havoc" PERFORMER "Corduroy" INDEX 00 03:05:31FILE "13 - High Havoc.wav" WAVE INDEX 01 00:00:00 TRACK 14 AUDIO TITLE "London, England" PERFORMER "Corduroy" INDEX 00 04:09:49FILE "14 - London, England.wav" WAVE INDEX 01 00:00:00 TRACK 15 AUDIO TITLE "The Corduroy Orgasm Club" PERFORMER "Corduroy" INDEX 00 03:22:49FILE "15 - The Corduroy Orgasm Club.wav" WAVE INDEX 01 00:00:00 TRACK 16 AUDIO TITLE "The Frighteners" PERFORMER "Corduroy" INDEX 00 01:45:22FILE "16 - The Frighteners.wav" WAVE INDEX 01 00:00:00 TRACK 17 AUDIO TITLE "You're A Great Way To Fly" PERFORMER "Corduroy" INDEX 00 05:08:18FILE "17 - You're A Great Way To Fly.wav" WAVE INDEX 01 00:00:00 TRACK 18 AUDIO TITLE "Something In My Eye (Featuring Sherine)" PERFORMER "Corduroy" INDEX 00 02:36:29FILE "18 - Something In My Eye (Featuring Sherine).wav" WAVE INDEX 01 00:00:00 TRACK 19 AUDIO TITLE "Lovely Lonely And Loaded" PERFORMER "Corduroy" INDEX 00 03:22:31FILE "19 - Lovely Lonely And Loaded.wav" WAVE INDEX 01 00:00:00 TRACK 20 AUDIO TITLE "One Born Every Minute" PERFORMER "Corduroy" INDEX 00 04:05:06FILE "20 - One Born Every Minute.wav" WAVE INDEX 01 00:00:00

Об исполнителе (группе)

The acid jazz outfit Corduroy assembled singer/keyboardist Scott Addison, his drummer brother Ben, guitarist Simon Nelson-Smith, and bassist Richard Searle (a former member of '80s one-hit wonders Doctor & the Medics). Formed from the ashes of the short-lived Brit-pop group Boys Wonder, Corduroy played their first gig -- a one-off New Year's Eve date -- in 1991; the performance proved so successful that its members agreed to continue on full-time, soon signing to the Acid Jazz label and issuing their debut LP, the largely instrumental Dad Man Cat, in 1992. High Havoc -- the soundtrack to an imaginary film -- followed a year later, launching the U.K. Top Ten hits "Something in My Eye," "The Frighteners," and "London, England." In the wake of 1994's Out of Here, however, Acid Jazz dropped Corduroy from its roster; after a long hiatus, the group finally landed on the Big Cat label, where they resurfaced in 1997 with The New You!(Allmusic.com)

Об альбоме (сборнике)

Encompassing the band's seven-year career, London, England takes in the entirety of the first three albums, a few single sides, and a sampling of the final two albums. That's 40 tracks of acid jazz. Debut album Dead Man Cat led the way in the early '90s for a love of all things Hammond and groovy. Yes, when the James Taylor Quartet had veered toward commercial contemporary soul, Corduroy focused on the 1960s soundtrack vibe (that unfortunately everyone now associates with Austin Powers). This was 1992 though, and their love of filmic music was ahead of the trend. Dead Man Cat is magnificent and reeks of everything fascinating about late-'60s and early-'70s movie scoring: Hammond, bongos, fuzz guitar galore. And the thing is it's not ironic. Corduroy plainly loves this music and recreates the atmosphere and sound with ease. The second album, although a cheeky parody of a late-'60s swinging London movie's soundtrack (the band wrote the music around an imagined scenario) is again far beyond plagiarism and ably captures the mood and feel of the era. The opening sequence "High Havoc" is peppered with funky electric piano and the type of fuzzy lead guitar that the De Wolfe Association favored (a company that supplied the majority of the incidental music heard in late '60 British films). Mental images of an E-Type Jaguar roaring across Battersea Bridge are inescapable. From there on the soundtrack takes off, and it really does work. It's all there, and perfectly created too. By the time of the third album, Out of Here, released in 1994, the band had tired of the instrumental-only label and experimented with a vocal orientated approach. Although they sang wonderfully, other than the comical take on hard rock monstrosity, "Motorhead," the album just wasn't as fun as their earlier efforts and far closer to contemporary acid jazz-styled acts the Brand New Heavies and Jamiroqui than their previous releases. 1997's "Evolver" taken from The New You album made a move toward early-'70s prog rock, not unlike Todd Rundgren; however, by 1999, the Clik album attempted to cross over into dance music, and although bearing the fun cinematic trademark of the "Corduroy of old" doesn't successfully work. Some things are just better the traditional way. This is a brilliant collection, because what it does so well is compile the band's greatest moments chronologically, while skimming over the lesser moments. Not only is this an ideal introduction, it's all anybody needs by Corduroy. AllMusic Review by Jon "Mojo" Mills

Состав

Ben Addison Composer, Cover Illustration, Liner Notes
Scott Addison Composer
Richard Searle Composer
Sherine Performer
Nick Watson Remastering


[torrentc.info]_t_5609499.torrent
Торрент: Зарегистрирован ·  [ 2018-09-18 21:02 ] ·  7d7f36d4aae3549e40cf950f3d674f972ac11456

14 KB

Статус: проверено
Скачан: 0 раз
Размер: 1 GB
Оценка: 
(Голосов: 0)
Сказали спасибо: 0  Спасибо
Похожие темы
[Профиль]    [ЛС]
Показать сообщения:    
Ответить на тему

Текущее время: Сегодня 12:33

Часовой пояс: GMT + 7



Вы не можете начинать темы
Вы не можете отвечать на сообщения
Вы не можете редактировать свои сообщения
Вы не можете удалять свои сообщения
Вы не можете голосовать в опросах
Вы не можете прикреплять файлы к сообщениям
Вы можете скачивать файлы