(Progressive Rock) [WEB] Jaan Wessman - None For The Money, Two For The Show - 2018, FLAC (tracks), lossless

Ответить на тему
Статистика раздачи [Обновить пиров]
Размер:  294 MB   |    Зарегистрирован:  2 месяца 29 дней   |    Скачан:  0 раз

Полного источника не было: Никогда

 
   
 
 
 
Автор Сообщение

torrentc.info

Создавать темы 17-Сен-2018 22:53

[Цитировать]

Jaan Wessman / None For The Money, Two For The Show
Жанр: Progressive Rock
Носитель: WEB
Год издания: 2018
Страна исполнителя (группы): Finland
Аудиокодек: FLAC (*.flac)
Тип рипа: tracks
Битрейт аудио: lossless
Продолжительность: 46:06
Источник (релизер): Bandcamp
Наличие сканов в содержимом раздачи: нет

01. None For The Money... [00:01:38]
02. Promises To Keep [00:05:35]
03. Only Natural [00:04:36]
04. StartStop / On Top [00:02:56]
05. You Go Down [00:03:25]
06. Alice I Once Knew [00:05:59]
07. Well, cuz... [00:07:17]
08. Sick And Somewhat Scared [00:04:38]
09. Fulfilled [00:05:40]
10. ...Two For The Show [00:04:18]
Released September 14, 2018--

Лог проверки качества

-----------------------
DON'T MODIFY THIS FILE
-----------------------
PERFORMER: auCDtect Task Manager, ver. 1.6.0 RC1 build 1.6.0.1Copyright (c) 2008-2010 y-soft. All rights reservedhttp://y-soft.org
ANALYZER: auCDtect: CD records authenticity detector, version 0.8.2Copyright (c) 2004 Oleg Berngardt. All rights reserved.Copyright (c) 2004 Alexander Djourik. All rights reserved.
FILE: 10. ...Two For The Show.flac Size: 27891021 Hash: 45B3CBB87A7D2A030169E1EFDB7AE6FD Accuracy: -m0 Conclusion: CDDA 100% Signature: DD0FE9D8A261D84339FD35DE877D6E722BEB6233FILE: 09. Fulfilled.flac Size: 37704388 Hash: 11466A963799EC100A321D104D4A777D Accuracy: -m0 Conclusion: CDDA 86% Signature: 61DA2A31495CADB9B80603A6511E100DD74FF641FILE: 08. Sick And Somewhat Scared.flac Size: 27117286 Hash: 07453DA3BB80E3240B462CF240DB6F0D Accuracy: -m0 Conclusion: CDDA 100% Signature: 5EE841EA71016B5589698D23665FF3E5DF2F4F7CFILE: 07. Well, cuz....flac Size: 53856844 Hash: 56A465E1B19B247DB190984F91D19F56 Accuracy: -m0 Conclusion: CDDA 86% Signature: AB1F3C37BDE522C7A622055C742592F2F4B1DF4CFILE: 06. Alice I Once Knew.flac Size: 38565647 Hash: D339552B7E31734EBCAEA7A18B71E052 Accuracy: -m0 Conclusion: CDDA 100% Signature: 0B8A02546F2F613B6BB31D686EBDDB63D2580904FILE: 05. You Go Down.flac Size: 24145858 Hash: 5EAE0E21D9A8CA8EB7DC49A40359B696 Accuracy: -m0 Conclusion: CDDA 100% Signature: C2986BCA527B5C36A665B3F01352D3F67D5E84A1FILE: 04. StartStop - On Top.flac Size: 16053743 Hash: 7459A1A1799AE51C9A470DD2E789F357 Accuracy: -m0 Conclusion: CDDA 100% Signature: 8A2E3EF1A704D732883602F1FBA7102DD3E044AFFILE: 03. Only Natural.flac Size: 31199506 Hash: AF7DB7C394395445A8D48E7DB8734E1C Accuracy: -m0 Conclusion: CDDA 99% Signature: 4CBB26225FEAA2895361F2EDBE2BF7F4450D7973FILE: 02. Promises To Keep.flac Size: 39173406 Hash: 46EA3B31FC51C0D5B6A3E49530CB6AB8 Accuracy: -m0 Conclusion: CDDA 100% Signature: AC75F7D55A1D5FDB3A4B730A9395990B6234A9AFFILE: 01. None For The Money....flac Size: 9479151 Hash: BC929052D097FAF65390223ADDCD4868 Accuracy: -m0 Conclusion: CDDA 100% Signature: CC7E11A0F69ADCCD269F2FDCDD2C60B1EEBC9530

DRM log

foobar2000 1.3.12 / Dynamic Range Meter 1.1.1log date: 2018-09-16 11:23:03
--------------------------------------------------------------------------------Analyzed: Jaan Wessman / None For The Money, Two For The Show--------------------------------------------------------------------------------
DR Peak RMS Duration Track--------------------------------------------------------------------------------DR13 -3.01 dB -19.79 dB 1:38 01-None For The Money...DR10 -1.00 dB -12.44 dB 5:36 02-Promises To KeepDR12 -1.00 dB -13.66 dB 4:36 03-Only NaturalDR9 -0.99 dB -13.30 dB 2:57 04-StartStop / On TopDR13 -1.00 dB -15.19 dB 3:26 05-You Go DownDR10 -1.01 dB -15.41 dB 5:59 06-Alice I Once KnewDR10 -0.74 dB -12.46 dB 7:17 07-Well, cuz...DR12 -1.02 dB -14.83 dB 4:39 08-Sick And Somewhat ScaredDR9 -0.87 dB -12.36 dB 5:40 09-FulfilledDR12 -0.92 dB -14.95 dB 4:19 10-...Two For The Show--------------------------------------------------------------------------------
Number of tracks: 10Official DR value: DR11
Samplerate: 44100 HzChannels: 2Bits per sample: 16Bitrate: 854 kbpsCodec: FLAC================================================================================
--


[torrentc.info]_t_5614417.torrent
Торрент: Зарегистрирован ·  [ 2018-09-17 22:47 ] ·  74090de93225d403700e47c3c3d18c73cccdef65

13 KB

Статус: проверено
Скачан: 0 раз
Размер: 294 MB
Оценка: 
(Голосов: 0)
Сказали спасибо: 0  Спасибо
Похожие темы
[Профиль]    [ЛС]
Показать сообщения:    
Ответить на тему

Текущее время: Сегодня 14:28

Часовой пояс: GMT + 7



Вы не можете начинать темы
Вы не можете отвечать на сообщения
Вы не можете редактировать свои сообщения
Вы не можете удалять свои сообщения
Вы не можете голосовать в опросах
Вы не можете прикреплять файлы к сообщениям
Вы можете скачивать файлы