(Prog Rock) [CD] The Australian Pink Floyd Show - Everything Under The Sun (2 CD) - 2017, FLAC (image+.cue), lossless

Ответить на тему
Статистика раздачи [Обновить пиров]
Размер:  822 MB   |    Зарегистрирован:  1 месяц 5 дней   |    Скачан:  0 раз

Полного источника не было: Никогда

 
   
 
 
 
Автор Сообщение

torrentc.info

Создавать темы 17-Сен-2018 22:53

[Цитировать]

The Australian Pink Floyd Show / Everything Under The Sun (2 CD)- Жанр: Prog Rock
Носитель: CD
Страна-производитель диска (релиза): Germany
Год издания: 2017
Издатель (лейбл): Black Hill Pictures
Страна исполнителя (группы): Australia
Аудиокодек: FLAC (*.flac)
Тип рипа: image+.cue
Битрейт аудио: lossless
Продолжительность: 02:17:52
Источник (релизер): Thunderstruck
Наличие сканов в содержимом раздачи: Back
Album:
-

Треклист:

CD 1
01. Astronomy Domine - 6:14
02. Shine on you crazy Diamond 1-5 - 14:38
03. Time & Breathe Reprise - 7:05
04. The great Gig in the Sky - 4:44
05. On the Turning away - 6:29
06. Wish you were here - 5:05
07. Us & Them - 7:55
08. Any Colour you like - 3:24
09. Brain Damage - 3:48
10. Eclipse - 2:02
11. The happiest Days of our Lives/Another Brick in the Wall Part 2 - 9:07
(11 / 1:10:30)
CD 2
01. Pigs (Three different ones) - 12:14
02. Learning to fly - 5:05
03. Hey you - 4:51
04. The Fletcher Memorial Home - 4:20
05. What do you want from me - 4:22
06. Sorrow - 10:41
07. One of these Days - 6:40
08. Comfortably Numb - 10:34
09. Run like Hell - 8:35
(9 / 1:07:21)
-

Лог создания рипа CD1

Exact Audio Copy V1.3 from 2. September 2016
EAC extraction logfile from 12. September 2018, 20:55
Australian Pink Floyd Show / Everything under the Sun
Used drive : HL-DT-STDVDRAM GH20NS10 Adapter: 1 ID: 0
Read mode : SecureUtilize accurate stream : YesDefeat audio cache : YesMake use of C2 pointers : No
Read offset correction : 667Overread into Lead-In and Lead-Out : NoFill up missing offset samples with silence : YesDelete leading and trailing silent blocks : NoNull samples used in CRC calculations : YesUsed interface : Native Win32 interface for Win NT & 2000
Used output format : User Defined EncoderSelected bitrate : 768 kBit/sQuality : HighAdd ID3 tag : NoCommand line compressor : C:\Program Files (x86)\Exact Audio Copy\FLAC\FLAC.EXEAdditional command line options : -6 -V -T "ARTIST=%artist%" -T "TITLE=%title%" -T "ALBUM=%albumtitle%" -T "DATE=%year%" -T "TRACKNUMBER=%tracknr%" -T "GENRE=%genre%" -T "COMMENT=%comment%" -T "BAND=%albuminterpret%" -T "ALBUMARTIST=%albuminterpret%" -T "COMPOSER=%composer%" %haslyrics%--tag-from-file=LYRICS="%lyricsfile%"%haslyrics% -T "DISCNUMBER=%cdnumber%" -T "TOTALDISCS=%totalcds%" -T "TOTALTRACKS=%numtracks%" %hascover%--picture="%coverfile%"%hascover% %source% -o %dest%
TOC of the extracted CD
Track | Start | Length | Start sector | End sector --------------------------------------------------------- 1 | 0:00.00 | 6:14.00 | 0 | 28049 2 | 6:14.00 | 14:37.66 | 28050 | 93890 3 | 20:51.66 | 7:05.02 | 93891 | 125767 4 | 27:56.68 | 4:43.41 | 125768 | 147033 5 | 32:40.34 | 6:29.27 | 147034 | 176235 6 | 39:09.61 | 5:05.02 | 176236 | 199112 7 | 44:14.63 | 7:54.41 | 199113 | 234703 8 | 52:09.29 | 3:24.26 | 234704 | 250029 9 | 55:33.55 | 3:47.55 | 250030 | 267109 10 | 59:21.35 | 2:02.18 | 267110 | 276277 11 | 61:23.53 | 9:06.45 | 276278 | 317272
Range status and errors
Selected range
Filename C:\FLAC\Australian Pink Floyd Show - Everything under the Sun.wav
Peak level 100.0 % Extraction speed 8.0 X Range quality 100.0 % Copy CRC 6153EE33 Copy OK
No errors occurred
AccurateRip summary
Track 1 accurately ripped (confidence 9) [1EB138B3] (AR v2)Track 2 accurately ripped (confidence 9) [7300B10F] (AR v2)Track 3 accurately ripped (confidence 9) [30A45E9B] (AR v2)Track 4 accurately ripped (confidence 9) [7519700A] (AR v2)Track 5 accurately ripped (confidence 9) [775AB8EE] (AR v2)Track 6 accurately ripped (confidence 9) [A0A8E7D1] (AR v2)Track 7 accurately ripped (confidence 9) [535F4C87] (AR v2)Track 8 accurately ripped (confidence 9) [0DF834D8] (AR v2)Track 9 accurately ripped (confidence 9) [77473904] (AR v2)Track 10 accurately ripped (confidence 9) [379EC101] (AR v2)Track 11 accurately ripped (confidence 9) [656C098E] (AR v2)
All tracks accurately ripped
End of status report
---- CUETools DB Plugin V2.1.6
[CTDB TOCID: cumFhqHzazObqn2iC9k7dBG3_Uk-] foundSubmit result: cumFhqHzazObqn2iC9k7dBG3_Uk- has been confirmedTrack | CTDB Status 1 | (29/29) Accurately ripped 2 | (29/29) Accurately ripped 3 | (29/29) Accurately ripped 4 | (29/29) Accurately ripped 5 | (29/29) Accurately ripped 6 | (29/29) Accurately ripped 7 | (29/29) Accurately ripped 8 | (29/29) Accurately ripped 9 | (29/29) Accurately ripped 10 | (29/29) Accurately ripped 11 | (29/29) Accurately ripped
==== Log checksum 4FDEDD9D358A306D542843EF5508014CD47FD9B6BC72F08D7C7ED0331FF8C6EE ====
-

Лог создания рипа CD2

Exact Audio Copy V1.3 from 2. September 2016
EAC extraction logfile from 12. September 2018, 21:06
Australian Pink Floyd Show / Everything under the Sun
Used drive : HL-DT-STDVDRAM GH20NS10 Adapter: 1 ID: 0
Read mode : SecureUtilize accurate stream : YesDefeat audio cache : YesMake use of C2 pointers : No
Read offset correction : 667Overread into Lead-In and Lead-Out : NoFill up missing offset samples with silence : YesDelete leading and trailing silent blocks : NoNull samples used in CRC calculations : YesUsed interface : Native Win32 interface for Win NT & 2000
Used output format : User Defined EncoderSelected bitrate : 768 kBit/sQuality : HighAdd ID3 tag : NoCommand line compressor : C:\Program Files (x86)\Exact Audio Copy\FLAC\FLAC.EXEAdditional command line options : -6 -V -T "ARTIST=%artist%" -T "TITLE=%title%" -T "ALBUM=%albumtitle%" -T "DATE=%year%" -T "TRACKNUMBER=%tracknr%" -T "GENRE=%genre%" -T "COMMENT=%comment%" -T "BAND=%albuminterpret%" -T "ALBUMARTIST=%albuminterpret%" -T "COMPOSER=%composer%" %haslyrics%--tag-from-file=LYRICS="%lyricsfile%"%haslyrics% -T "DISCNUMBER=%cdnumber%" -T "TOTALDISCS=%totalcds%" -T "TOTALTRACKS=%numtracks%" %hascover%--picture="%coverfile%"%hascover% %source% -o %dest%
TOC of the extracted CD
Track | Start | Length | Start sector | End sector --------------------------------------------------------- 1 | 0:00.00 | 12:14.07 | 0 | 55056 2 | 12:14.07 | 5:04.53 | 55057 | 77909 3 | 17:18.60 | 4:50.55 | 77910 | 99714 4 | 22:09.40 | 4:19.48 | 99715 | 119187 5 | 26:29.13 | 4:21.38 | 119188 | 138800 6 | 30:50.51 | 10:41.11 | 138801 | 186886 7 | 41:31.62 | 6:39.50 | 186887 | 216861 8 | 48:11.37 | 10:33.70 | 216862 | 264406 9 | 58:45.32 | 8:35.20 | 264407 | 303051
Range status and errors
Selected range
Filename C:\FLAC\Australian Pink Floyd Show - Everything under the Sun.wav
Peak level 100.0 % Extraction speed 7.9 X Range quality 100.0 % Copy CRC 7D8CD5F3 Copy OK
No errors occurred
AccurateRip summary
Track 1 accurately ripped (confidence 7) [5D21D8E4] (AR v2)Track 2 accurately ripped (confidence 7) [6F245B7C] (AR v2)Track 3 accurately ripped (confidence 7) [1E01E952] (AR v2)Track 4 accurately ripped (confidence 7) [69EBFF44] (AR v2)Track 5 accurately ripped (confidence 7) [D99E89E8] (AR v2)Track 6 accurately ripped (confidence 7) [B68CBBF3] (AR v2)Track 7 accurately ripped (confidence 7) [7D5931F5] (AR v2)Track 8 accurately ripped (confidence 7) [93EDBB22] (AR v2)Track 9 accurately ripped (confidence 7) [0708683A] (AR v2)
All tracks accurately ripped
End of status report
---- CUETools DB Plugin V2.1.6
[CTDB TOCID: HyywDAQOc4RkJB7YAG2n6HCZw6s-] foundSubmit result: HyywDAQOc4RkJB7YAG2n6HCZw6s- has been confirmedTrack | CTDB Status 1 | (28/28) Accurately ripped 2 | (28/28) Accurately ripped 3 | (28/28) Accurately ripped 4 | (28/28) Accurately ripped 5 | (28/28) Accurately ripped 6 | (28/28) Accurately ripped 7 | (28/28) Accurately ripped 8 | (28/28) Accurately ripped 9 | (28/28) Accurately ripped
==== Log checksum E45326F89B992EE33A041CDDE993DA3C4E62B7945F9680D3867D0BC4E0C3CB39 ====
-


[torrentc.info]_t_5614592.torrent
Торрент: Зарегистрирован ·  [ 2018-09-17 22:47 ] ·  9483df420c1822cb4987543c312a9c4c2997a4d5

17 KB

Статус: проверено
Скачан: 0 раз
Размер: 822 MB
Оценка: 
(Голосов: 0)
Сказали спасибо: 0  Спасибо
Похожие темы
[Профиль]    [ЛС]
Показать сообщения:    
Ответить на тему

Текущее время: Сегодня 05:55

Часовой пояс: GMT + 7



Вы не можете начинать темы
Вы не можете отвечать на сообщения
Вы не можете редактировать свои сообщения
Вы не можете удалять свои сообщения
Вы не можете голосовать в опросах
Вы не можете прикреплять файлы к сообщениям
Вы можете скачивать файлы