Цветок под дождем / Yu zhong hua / Flower in the Rain (Гам Чу-Юн / Gam Chue-Yung) [1972, Гонконг, Драма, DVDRip] VO (Хоррор Мэйкер) + Original Zho

Ответить на тему
Статистика раздачи [Обновить пиров]
Размер:  1.47 GB   |    Зарегистрирован:  3 месяца   |    Скачан:  0 раз

Полного источника не было: Никогда

 
   
 
 
 
Автор Сообщение

torrentc.info

Создавать темы 16-Сен-2018 23:27

[Цитировать]

Цветок под дождем / Yu zhong hua / Flower in the Rain
Страна: Гонконг
Студия: Shaw Brothers
Жанр: Драма
Год выхода: 1972
Продолжительность: 01:40:58
Перевод: Одноголосый закадровый | Хоррор Мэйкер
Субтитры: Нет
Оригинальная аудиодорожка: китайский
Режиссер: Гам Чу-Юн / Gam Chue-Yung
В ролях: Лили Хо, Лин Юнь, Джеймс Нам, Чэнь Яньянь, Ку Вэньчун, Тереза Ха
Описание: Фильм о трагической любви богатой девушки и бедного певца.-| IMDb | Скачать Cэмпл |-Качество видео: DVDRip (Источник: Torrentc DVD5, за который огромное спасибо [url=profile.php?mode=viewprofile&u=1768398]tong777[/url])
Формат файла: AVI
Видео: 640x272 (2.35:1), 29.970 fps, XviD build 65 ~1551 kbps avg, 0.297 bit/pixel
Аудио 1: 48 kHz, AC3 Dolby Digital, 2/0 (L,R) ch, ~256 kbps | Одноголосый закадровый (Хоррор Мэйкер)
Аудио 2: 48 kHz, AC3 Dolby Digital, 2/0 (L,R) ch, ~256 kbps | Китайский

MediaInfo

ОбщееПолное имя : C:\Cvetok.pod.Dogdem.VO.1972.DVDRip.aviФормат файла : AVIФормат файла/Информация : Audio Video InterleaveРазмер файла : 1,47 ГбайтПродолжительность : 1 ч. 40 м.Общий поток : 2080 Кбит/секНазвание фильма : Цветок под дождем / Yu zhong hua (1972) DVDRipРежиссёр : Гам Чу-Юн / Gam Chue-YungЖанр : ДрамаПрограмма кодирования : VirtualDubMod 1.5.10.2 (build 2542/release)Формат файла оригинала/Имя : Художественный фильмАвторское право : Shaw BrothersПримечание : vitolinform
ВидеоИдентификатор : 0Формат файла : MPEG-4 VisualПрофиль формата : Advanced Simple@L5Настройки формата : BVOP2Параметр BVOP формата : 2Параметр QPel формата : НетПараметр GMC формата : Без точки переходаПараметр матрицы формата : Default (MPEG)Идентификатор кодека : XVIDИдентификатор кодека/Подсказка : XviDПродолжительность : 1 ч. 40 м.Битрейт : 1551 Кбит/секШирина : 640 пикселейВысота : 272 пикселяСоотношение сторон : 2,35:1Частота кадров : 29,970 (30000/1001) кадров/секЦветовое пространство : YUVСубдискретизация насыщенности : 4:2:0Битовая глубина : 8 битТип развёртки : ЧересстрочнаяПорядок развёртки : Нижнее поле первоеМетод сжатия : С потерямиБит/(Пиксели*Кадры) : 0.297Размер потока : 1,09 Гбайт (75%)Библиотека кодирования : XviD 67
Аудио #1Идентификатор : 1Формат файла : AC-3Формат файла/Информация : Audio Coding 3Идентификатор кодека : 2000Продолжительность : 1 ч. 40 м.Вид битрейта : ПостоянныйБитрейт : 256 Кбит/секКаналы : 2 каналаРасположение каналов : Front: L RЧастота : 48,0 КГцЧастота кадров : 31,250 кадров/сек (1536 SPF)Битовая глубина : 16 битМетод сжатия : С потерямиРазмер потока : 185 Мбайт (12%)Выравнивание : Разделение по промежуткамПродолжительность промежутка : 33 мс. (1,00 видеокадр)Время предзагрузки промежутка : 500 мс.Заголовок : Russian (VO Хоррор Мэйкер)ServiceKind/String : Complete Main
Аудио #2Идентификатор : 2Формат файла : AC-3Формат файла/Информация : Audio Coding 3Идентификатор кодека : 2000Продолжительность : 1 ч. 40 м.Вид битрейта : ПостоянныйБитрейт : 256 Кбит/секКаналы : 2 каналаРасположение каналов : Front: L RЧастота : 48,0 КГцЧастота кадров : 31,250 кадров/сек (1536 SPF)Битовая глубина : 16 битМетод сжатия : С потерямиРазмер потока : 185 Мбайт (12%)Выравнивание : Разделение по промежуткамПродолжительность промежутка : 33 мс. (1,00 видеокадр)Время предзагрузки промежутка : 500 мс.Заголовок : ChineseServiceKind/String : Complete Main

-
Сообщения из этой темы [3 шт.] были выделены в отдельную тему Выделено из: Цветок под дождем / Yu zhong hua / Flower in the Rain (Гам Чу-Юн / Gam Chue-Yung) [1972, Гонконг, Драма, DVDRip] VO (Хоррор Мэйкер) + Original Zho [5614350]
[url=profile.php?mode=viewprofile&u=8679101]порошков[/url]


[torrentc.info]_t_5614350.torrent
Торрент: Зарегистрирован ·  [ 2018-09-16 23:27 ] ·  138161595d3d32eb13a5ea6cdee1ebd38f2bb9ab

15 KB

Статус: проверено
Скачан: 0 раз
Размер: 1.47 GB
Оценка: 
(Голосов: 0)
Сказали спасибо: 0  Спасибо
Похожие темы
[Профиль]    [ЛС]
Показать сообщения:    
Ответить на тему

Текущее время: Сегодня 15:01

Часовой пояс: GMT + 7



Вы не можете начинать темы
Вы не можете отвечать на сообщения
Вы не можете редактировать свои сообщения
Вы не можете удалять свои сообщения
Вы не можете голосовать в опросах
Вы не можете прикреплять файлы к сообщениям
Вы можете скачивать файлы