Мой самый невероятный год / Мой самый ужасный год / My Horrible Year! (Эрик Столц / Eric Stoltz) [2001, США, драма, комедия, VHSRip] MVO

Ответить на тему
Статистика раздачи [Обновить пиров]
Размер:  1.37 GB   |    Зарегистрирован:  2 месяца   |    Скачан:  0 раз

Полного источника не было: Никогда

 
   
 
 
 
Автор Сообщение

torrentc.info

Создавать темы 15-Сен-2018 23:23

[Цитировать]

Мой самый невероятный год / Мой самый ужасный год / My Horrible Year!
[img=right]https://i4.imageban.ru/out/2018/09/15/d86893d2057a5...2636af.jpg[/img]
Страна: США
Жанр: драма, комедия
Год выхода: 2001
Продолжительность: 01:28:32
Перевод: Профессиональный (многоголосый закадровый) Премьер ??
Субтитры: нет
Режиссер: Эрик Столц / Eric Stoltz
В ролях: Карен Аллен /Karen Allen/, Эллисон Мэк /Allison Mack/, Катерина Скорсоне /Caterina Scorsone/, Дэниэл Петроньевич /Daniel Petronijevic/, Джей Эдам Браун /J. Adam Brown/, Джек Даффи /Jack Duffy/, Франческа Скорсоне /Francesca Scorsone/, Брайн Хайтон /Brian Heigthon/, Брет Харт /Bret Hart/, Джеки Лэйдло /Jackie Laidlaw/, Николас Карелла /Nicholas Carella/, Сэнди Сталбрэнд /Sandi Stahlbrand/, Мэри Уолл /Mary Wall/, Эрик Штольц /Eric Stoltz/, Мими Роджерс /Mimi Rogers/
Описание: Ник - молодая девушка, живущая в городке Эннитаун. Она ведет рассказ о своей семье: об отце которого сократили на работе и ему пришлось продавать обувь в универмаге, о матери, бывшей певицы хиппи, о себе, подруге и ее дружке с крашеными волосами и металлом в различных частях лица. Жизнь у нее не самая веселая, когда доходы семьи ниже среднего достатка. Ник меняет памперсы своих братьев-близнецов, в субботу ей исполняется 16, а она еще ни разу не целовалась. Папа слишком часто бывает у тетушки Мэрион, жены покойного дяди Чарли (Штолц), которого обожали все. Все действие сопровождается непрерывными диалогами и комментариями от лица Ник. Она считает, что ее родители разводятся, продают дом и собираются сообщить ей об этом в день ее рождения. В школе Ник видит парня Зака, в которого моментально влюбляется, но Сара Джейн уводит его прямо из-под носа. Ник хочет встречаться с Заком, сохранить брак своих родителей. Казалось, все идет прахом, но именно в самые черные дни, судьба улыбается Ник... Это режиссерский дебют отличного актера Эрика Штольца, но лучше бы он оставался по другую сторону камеры. Скучно рассматривать фотографии людей и детей, которых ты не знаешь. (Иванов М.)
Доп. информация: Оцифровка VHS из коллекции ilgiz01

Сэмпл: https://yadi.sk/i/XDX7XOpmoL5NTg
Качество видео: VHSRip
Формат файла: AVI
Видео: 704x512 (1.38:1), 25 fps, XviD build 73 ~2006 kbps avg, 0.22 bit/pixel
Аудио: 48 kHz, AC3 Dolby Digital, 2/0 (L,R) ch, ~192 kbps

MediaInfo

Мой самый ужасный год - My Horrible Year! [by ilgiz01].aviFormat : AVIFormat/Info : Audio Video InterleaveFile size : 1.37 GiBDuration : 1 h 28 minOverall bit rate : 2 208 kb/sMovie name : Мой самый ужасный год - My Horrible Year! [by ilgiz01]Director : by ilgiz01Writing application : VirtualDubMod 1.5.10.3 | www.virtualdub-fr.org || (build 2550/release)Copyright : Edich2Comment : Torrentc
VideoID : 0Format : MPEG-4 VisualFormat profile : Advanced Simple@L5Format settings : BVOP2 / Custom MatrixFormat settings, BVOP : 2Format settings, QPel : NoFormat settings, GMC : No warppointsFormat settings, Matrix : CustomCodec ID : XVIDCodec ID/Hint : XviDDuration : 1 h 28 minBit rate : 2 007 kb/sWidth : 704 pixelsHeight : 512 pixelsDisplay aspect ratio : 1.375Frame rate : 25.000 FPSColor space : YUVChroma subsampling : 4:2:0Bit depth : 8 bitsScan type : ProgressiveCompression mode : LossyBits/(Pixel*Frame) : 0.223Stream size : 1.24 GiB (91%)Writing library : XviD 73
AudioID : 1Format : AC-3Format/Info : Audio Coding 3Codec ID : 2000Duration : 1 h 28 minBit rate mode : ConstantBit rate : 192 kb/sChannel(s) : 2 channelsChannel positions : Front: L RSampling rate : 48.0 kHzFrame rate : 31.250 FPS (1536 SPF)Bit depth : 16 bitsCompression mode : LossyStream size : 122 MiB (9%)Alignment : Split accross interleavesInterleave, duration : 40 ms (1.00 video frame)Interleave, preload duratio : 500 msService kind : Complete Main


[torrentc.info]_t_5614053.torrent
Торрент: Зарегистрирован ·  [ 2018-09-15 23:23 ] ·  14a40f064a4c1aa65dfb8f06dfa2fd9fc42ed180

14 KB

Статус: проверено
Скачан: 0 раз
Размер: 1.37 GB
Оценка: 
(Голосов: 0)
Сказали спасибо: 0  Спасибо
Похожие темы
[Профиль]    [ЛС]
Показать сообщения:    
Ответить на тему

Текущее время: Сегодня 12:29

Часовой пояс: GMT + 7



Вы не можете начинать темы
Вы не можете отвечать на сообщения
Вы не можете редактировать свои сообщения
Вы не можете удалять свои сообщения
Вы не можете голосовать в опросах
Вы не можете прикреплять файлы к сообщениям
Вы можете скачивать файлы