(Musical, Show) Cirque du Soleil (Luzia) - 2016, FLAC (tracks+.cue), lossless

Ответить на тему
Статистика раздачи [Обновить пиров]
Размер:  309 MB   |    Зарегистрирован:  2 месяца 25 дней   |    Скачан:  0 раз

Полного источника не было: Никогда

 
   
 
 
 
Автор Сообщение

torrentc.info

Создавать темы 15-Сен-2018 21:12

[Цитировать]

Cirque du Soleil
[img=right]https://i102.fastpic.ru/big/2018/0913/92/af3f5eb0eb...68c92.jpeg[/img]
Название альбома: Luzia
Жанр: Musical, Show
Год выхода диска: 2016
Издатель (лейбл): Cirque Du Soleil
Аудиокодек: FLAC (*.flac)
Тип рипа: tracks+.cue
Битрейт аудио: lossless
Продолжительность: 00:44:20
Источник: скачано с
сайт-источник/ник/другое: локальная сеть
Наличие сканов в содержимом раздачи: нет
Треклист:
1 Asi Es La Vida
2 Tiembla La Tierra
3 Flores En El Desierto
4 Pambolero
5 Pez Volador
6 Los Mosquitos
7 Alebrijes
8 Tlaloc
9 Cierra Los Ojos
10 Fiesta Finale

Лог создания рипа

X Lossless Decoder version 20151214 (149.1)
XLD extraction logfile from 2016-06-07 23:37:33 -0400
Cirque Du Soleil / Luzia
Used drive : HL-DT-ST DVDRW GA11N (revision JA18)Media type : Pressed CD
Ripper mode : XLD Secure RipperDisable audio cache : OK for the drive with a cache less than 1375KiBMake use of C2 pointers : NORead offset correction : 667Max retry count : 20Gap status : Analyzed, Appended (except HTOA)
TOC of the extracted CD Track | Start | Length | Start sector | End sector --------------------------------------------------------- 1 | 00:00:00 | 04:49:17 | 0 | 21691 2 | 04:49:17 | 04:55:11 | 21692 | 43827 3 | 09:44:28 | 04:29:72 | 43828 | 64074 4 | 14:14:25 | 04:51:14 | 64075 | 85913 5 | 19:05:39 | 04:44:54 | 85914 | 107267 6 | 23:50:18 | 04:37:71 | 107268 | 128113 7 | 28:28:14 | 03:40:61 | 128114 | 144674 8 | 32:09:00 | 03:48:06 | 144675 | 161780 9 | 35:57:06 | 03:51:26 | 161781 | 179131 10 | 39:48:32 | 04:32:36 | 179132 | 199567
AccurateRip Summary Disc not found in AccurateRip DB.
All Tracks Album gain : -7.64 dB Peak : 0.960510 Statistics Read error : 0 Jitter error (maybe fixed) : 0 Retry sector count : 0 Damaged sector count : 0
Track 01 Filename : /Cirque Du Soleil - Luzia (2016) [FLAC]/01 Asi Es La Vida.flac Pre-gap length : 00:02:00
Track gain : -7.84 dB Peak : 0.959991 CRC32 hash (test run) : 13D33A2B CRC32 hash : 13D33A2B CRC32 hash (skip zero) : 58C92986 AccurateRip v1 signature : 0BFC9C43 AccurateRip v2 signature : F0EAC6C0 ->Track not present in AccurateRip database. Statistics Read error : 0 Jitter error (maybe fixed) : 0 Retry sector count : 0 Damaged sector count : 0
Track 02 Filename : /Cirque Du Soleil - Luzia (2016) [FLAC]/02 Tiembla La Tierra.flac
Track gain : -8.19 dB Peak : 0.959534 CRC32 hash (test run) : A483E351 CRC32 hash : A483E351 CRC32 hash (skip zero) : D00AE8B5 AccurateRip v1 signature : 9CA7BBFB AccurateRip v2 signature : 6AD906CE ->Track not present in AccurateRip database. Statistics Read error : 0 Jitter error (maybe fixed) : 0 Retry sector count : 0 Damaged sector count : 0
Track 03 Filename : /Cirque Du Soleil - Luzia (2016) [FLAC]/03 Flores En El Desierto.flac
Track gain : -5.87 dB Peak : 0.959656 CRC32 hash (test run) : 1B24D7A1 CRC32 hash : 1B24D7A1 CRC32 hash (skip zero) : F1E2C589 AccurateRip v1 signature : 67321E15 AccurateRip v2 signature : AFA747C1 ->Track not present in AccurateRip database. Statistics Read error : 0 Jitter error (maybe fixed) : 0 Retry sector count : 0 Damaged sector count : 0
Track 04 Filename : /Cirque Du Soleil - Luzia (2016) [FLAC]/04 Pambolero.flac
Track gain : -7.52 dB Peak : 0.959625 CRC32 hash (test run) : 1E2DB0BB CRC32 hash : 1E2DB0BB CRC32 hash (skip zero) : 7F028A39 AccurateRip v1 signature : 5E92425B AccurateRip v2 signature : 2442DEAF ->Track not present in AccurateRip database. Statistics Read error : 0 Jitter error (maybe fixed) : 0 Retry sector count : 0 Damaged sector count : 0
Track 05 Filename : /Cirque Du Soleil - Luzia (2016) [FLAC]/05 Pez Volador.flac
Track gain : -7.57 dB Peak : 0.960114 CRC32 hash (test run) : 3C90FF76 CRC32 hash : 3C90FF76 CRC32 hash (skip zero) : 3D04DF22 AccurateRip v1 signature : 983E8499 AccurateRip v2 signature : 55879510 ->Track not present in AccurateRip database. Statistics Read error : 0 Jitter error (maybe fixed) : 0 Retry sector count : 0 Damaged sector count : 0
Track 06 Filename : /Cirque Du Soleil - Luzia (2016) [FLAC]/06 Los Mosquitos.flac
Track gain : -8.11 dB Peak : 0.959595 CRC32 hash (test run) : F1BF2BC1 CRC32 hash : F1BF2BC1 CRC32 hash (skip zero) : 5335C1B8 AccurateRip v1 signature : 007227E6 AccurateRip v2 signature : 1EBBAFF6 ->Track not present in AccurateRip database. Statistics Read error : 0 Jitter error (maybe fixed) : 0 Retry sector count : 0 Damaged sector count : 0
Track 07 Filename : /Cirque Du Soleil - Luzia (2016) [FLAC]/07 Alebrijes.flac
Track gain : -5.88 dB Peak : 0.959564 CRC32 hash (test run) : 48C700D2 CRC32 hash : 48C700D2 CRC32 hash (skip zero) : 78D7BC77 AccurateRip v1 signature : E7D778F3 AccurateRip v2 signature : 6BE79B30 ->Track not present in AccurateRip database. Statistics Read error : 0 Jitter error (maybe fixed) : 0 Retry sector count : 0 Damaged sector count : 0
Track 08 Filename : /Cirque Du Soleil - Luzia (2016) [FLAC]/08 Tlaloc.flac
Track gain : -7.74 dB Peak : 0.960510 CRC32 hash (test run) : 7CED35C2 CRC32 hash : 7CED35C2 CRC32 hash (skip zero) : 851C261B AccurateRip v1 signature : FCD88ECB AccurateRip v2 signature : 4521FA62 ->Track not present in AccurateRip database. Statistics Read error : 0 Jitter error (maybe fixed) : 0 Retry sector count : 0 Damaged sector count : 0
Track 09 Filename : /Cirque Du Soleil - Luzia (2016) [FLAC]/09 Cierra Los Ojos.flac
Track gain : -7.22 dB Peak : 0.959808 CRC32 hash (test run) : 4A6ED218 CRC32 hash : 4A6ED218 CRC32 hash (skip zero) : 34D863BB AccurateRip v1 signature : 6BA8FB3E AccurateRip v2 signature : CD83FBD9 ->Track not present in AccurateRip database. Statistics Read error : 0 Jitter error (maybe fixed) : 0 Retry sector count : 0 Damaged sector count : 0
Track 10 Filename : /Cirque Du Soleil - Luzia (2016) [FLAC]/10 Fiesta Finale.flac
Track gain : -7.69 dB Peak : 0.959808 CRC32 hash (test run) : 63809A12 CRC32 hash : 63809A12 CRC32 hash (skip zero) : 91707BEC AccurateRip v1 signature : 50C8BCC1 AccurateRip v2 signature : 7A1E3664 ->Track not present in AccurateRip database. Statistics Read error : 0 Jitter error (maybe fixed) : 0 Retry sector count : 0 Damaged sector count : 0
No errors occurred
End of status report
-----BEGIN XLD SIGNATURE-----vEKpB.A7NNNz4eaXyK95nmnciEB39YHiGIDevbd_KhBoYyoapahDce4YnoFF9o5GSNw6k7OtFLwMw0jJMWCGA.pMgNIFwzRMNEyY4x0-----END XLD SIGNATURE-----

Содержание индексной карты (.CUE)

TITLE "Luzia"PERFORMER "Cirque Du Soleil"REM DATE "2016"REM DISCNUMBER 1REM TOTALDISCS 1REM DISCID 810A640AREM REPLAYGAIN_ALBUM_GAIN -7.64 dBREM REPLAYGAIN_ALBUM_PEAK 0.960510FILE "01 Asi Es La Vida.flac" WAVE TRACK 01 AUDIO TITLE "Asi Es La Vida" SONGWRITER "Simon Carpentier" ISRC CAC601610010 REM REPLAYGAIN_TRACK_GAIN -7.84 dB REM REPLAYGAIN_TRACK_PEAK 0.959991 INDEX 01 00:00:00FILE "02 Tiembla La Tierra.flac" WAVE TRACK 02 AUDIO TITLE "Tiembla La Tierra" SONGWRITER "Simon Carpentier" ISRC CAC601610020 REM REPLAYGAIN_TRACK_GAIN -8.19 dB REM REPLAYGAIN_TRACK_PEAK 0.959534 INDEX 01 00:00:00FILE "03 Flores En El Desierto.flac" WAVE TRACK 03 AUDIO TITLE "Flores En El Desierto" SONGWRITER "Simon Carpentier" ISRC CAC601610030 REM REPLAYGAIN_TRACK_GAIN -5.87 dB REM REPLAYGAIN_TRACK_PEAK 0.959656 INDEX 01 00:00:00FILE "04 Pambolero.flac" WAVE TRACK 04 AUDIO TITLE "Pambolero" SONGWRITER "Simon Carpentier" ISRC CAC601610040 REM REPLAYGAIN_TRACK_GAIN -7.52 dB REM REPLAYGAIN_TRACK_PEAK 0.959625 INDEX 01 00:00:00FILE "05 Pez Volador.flac" WAVE TRACK 05 AUDIO TITLE "Pez Volador" SONGWRITER "Simon Carpentier" ISRC CAC601610050 REM REPLAYGAIN_TRACK_GAIN -7.57 dB REM REPLAYGAIN_TRACK_PEAK 0.960114 INDEX 01 00:00:00FILE "06 Los Mosquitos.flac" WAVE TRACK 06 AUDIO TITLE "Los Mosquitos" SONGWRITER "Simon Carpentier" ISRC CAC601610060 REM REPLAYGAIN_TRACK_GAIN -8.11 dB REM REPLAYGAIN_TRACK_PEAK 0.959595 INDEX 01 00:00:00FILE "07 Alebrijes.flac" WAVE TRACK 07 AUDIO TITLE "Alebrijes" SONGWRITER "Simon Carpentier" ISRC CAC601610070 REM REPLAYGAIN_TRACK_GAIN -5.88 dB REM REPLAYGAIN_TRACK_PEAK 0.959564 INDEX 01 00:00:00FILE "08 Tlaloc.flac" WAVE TRACK 08 AUDIO TITLE "Tlaloc" SONGWRITER "Simon Carpentier" ISRC CAC601610080 REM REPLAYGAIN_TRACK_GAIN -7.74 dB REM REPLAYGAIN_TRACK_PEAK 0.960510 INDEX 01 00:00:00FILE "09 Cierra Los Ojos.flac" WAVE TRACK 09 AUDIO TITLE "Cierra Los Ojos" SONGWRITER "Simon Carpentier" ISRC CAC601610090 REM REPLAYGAIN_TRACK_GAIN -7.22 dB REM REPLAYGAIN_TRACK_PEAK 0.959808 INDEX 01 00:00:00FILE "10 Fiesta Finale.flac" WAVE TRACK 10 AUDIO TITLE "Fiesta Finale" SONGWRITER "Simon Carpentier" ISRC CAC601610100 REM REPLAYGAIN_TRACK_GAIN -7.69 dB REM REPLAYGAIN_TRACK_PEAK 0.959808 INDEX 01 00:00:00

Лог проверки качества

AUDIOCHECKER v2.0 beta (build 457) - by Dester - opdester@freemail.hu~~~~~~~~~~~~~~~~~~~~~~~~~~~~~~~~~~-=== DO NOT EDIT THIS FILE! ===-
Path: ...\Cirque Du Soleil - Luzia (2016) [FLAC]
01 -=- 01 Asi Es La Vida.flac -=- CDDA (100%)02 -=- 02 Tiembla La Tierra.flac -=- CDDA (100%)03 -=- 03 Flores En El Desierto.flac -=- CDDA (100%)04 -=- 04 Pambolero.flac -=- CDDA (100%)05 -=- 05 Pez Volador.flac -=- CDDA (100%)06 -=- 06 Los Mosquitos.flac -=- CDDA (100%)07 -=- 07 Alebrijes.flac -=- CDDA (100%)08 -=- 08 Tlaloc.flac -=- CDDA (100%)09 -=- 09 Cierra Los Ojos.flac -=- CDDA (100%)10 -=- 10 Fiesta Finale.flac -=- CDDA (99%)
Summary 99,90% CDDA
99878948


[torrentc.info]_t_5613022.torrent
Торрент: Зарегистрирован ·  [ 2018-09-15 21:11 ] ·  299bddb9be765b66d2bb2cecaa2eb4ac82e829ce

13 KB

Статус: проверено
Скачан: 0 раз
Размер: 309 MB
Оценка: 
(Голосов: 0)
Сказали спасибо: 0  Спасибо
Похожие темы
[Профиль]    [ЛС]
Показать сообщения:    
Ответить на тему

Текущее время: Сегодня 17:07

Часовой пояс: GMT + 7



Вы не можете начинать темы
Вы не можете отвечать на сообщения
Вы не можете редактировать свои сообщения
Вы не можете удалять свои сообщения
Вы не можете голосовать в опросах
Вы не можете прикреплять файлы к сообщениям
Вы можете скачивать файлы