(Musical, Show) Cirque du Soleil (Kurios) - 2014, FLAC (tracks+.cue), lossless

Ответить на тему
Статистика раздачи [Обновить пиров]
Размер:  415 MB   |    Зарегистрирован:  1 месяц 7 дней   |    Скачан:  0 раз

Полного источника не было: Никогда

 
   
 
 
 
Автор Сообщение

torrentc.info

Создавать темы 15-Сен-2018 21:12

[Цитировать]

Cirque du Soleil
[img=right]https://i99.fastpic.ru/big/2018/0913/d3/68710449d29...be72d3.jpg[/img]
Название альбома: Kurios
Жанр: Musical, Show
Год выхода диска: 2014
Издатель (лейбл): Cirque Du Soleil Musique
Аудиокодек: FLAC (*.flac)
Тип рипа: tracks+.cue
Битрейт аудио: lossless
Продолжительность: 01:02:36
Источник: скачано с
сайт-источник/ник/другое: локальная сеть
Наличие сканов в содержимом раздачи: нет
Треклист:
01. 11:11
02. Steampunk Telegram
03. Bella Donna Twist
04. Gravity Levitas
05. Monde Inverse
06. Hypnotique
07. Departure
08. Fearsome Flight
09. Clouds
10. Creature de Siam
11. Wat u no Wen
12. You Must Be Joking

Лог создания рипа

X Lossless Decoder version 20151214 (149.1)
XLD extraction logfile from 2016-08-01 22:40:58 -0400
Cirque du Soleil / Kurios
Used drive : HL-DT-ST DVDRW GSA-S10N (revision AP09)Media type : Pressed CD
Ripper mode : XLD Secure RipperDisable audio cache : OK for the drive with a cache less than 1375KiBMake use of C2 pointers : NORead offset correction : 667Max retry count : 20Gap status : Analyzed, Appended (except HTOA)
TOC of the extracted CD Track | Start | Length | Start sector | End sector --------------------------------------------------------- 1 | 00:00:00 | 04:37:00 | 0 | 20774 2 | 04:37:00 | 06:52:53 | 20775 | 51727 3 | 11:29:53 | 04:16:34 | 51728 | 70961 4 | 15:46:12 | 04:43:43 | 70962 | 92229 5 | 20:29:55 | 04:59:12 | 92230 | 114666 6 | 25:28:67 | 05:45:05 | 114667 | 140546 7 | 31:13:72 | 05:39:10 | 140547 | 165981 8 | 36:53:07 | 04:29:12 | 165982 | 186168 9 | 41:22:19 | 04:49:01 | 186169 | 207844 10 | 46:11:20 | 04:34:48 | 207845 | 228442 11 | 50:45:68 | 06:56:51 | 228443 | 259693 12 | 57:42:44 | 04:54:27 | 259694 | 281770
AccurateRip Summary (DiscID: 001bc88d-010335df-ac0eac0c) Track 01 : OK (v2, confidence 5/5) Track 02 : OK (v2, confidence 5/5) Track 03 : OK (v2, confidence 5/5) Track 04 : OK (v2, confidence 5/5) Track 05 : OK (v2, confidence 5/5) Track 06 : OK (v2, confidence 5/5) Track 07 : OK (v2, confidence 5/5) Track 08 : OK (v2, confidence 5/5) Track 09 : OK (v2, confidence 5/5) Track 10 : OK (v2, confidence 5/5) Track 11 : OK (v2, confidence 4/4) Track 12 : OK (v2, confidence 5/5) ->All tracks accurately ripped.
All Tracks Album gain : -7.19 dB Peak : 0.967010 Statistics Read error : 0 Jitter error (maybe fixed) : 0 Retry sector count : 41 Damaged sector count : 0
Track 01 Filename : /music/Cirque du Soleil - Kurios (2014) [FLAC]/01 - 11:11.flac Pre-gap length : 00:02:00
Track gain : -8.32 dB Peak : 0.967010 CRC32 hash (test run) : B3A87576 CRC32 hash : B3A87576 CRC32 hash (skip zero) : 56993AE2 AccurateRip v1 signature : DAC3D529 AccurateRip v2 signature : 16E3A0C6 ->Accurately ripped (v2, confidence 5/5) Statistics Read error : 0 Jitter error (maybe fixed) : 0 Retry sector count : 0 Damaged sector count : 0
Track 02 Filename : /music/Cirque du Soleil - Kurios (2014) [FLAC]/02 - Steampunk Telegram.flac
Track gain : -7.40 dB Peak : 0.966797 CRC32 hash (test run) : CB95DDDD CRC32 hash : CB95DDDD CRC32 hash (skip zero) : 1A0AD8C0 AccurateRip v1 signature : 1682CAF2 AccurateRip v2 signature : 478991A6 ->Accurately ripped (v2, confidence 5/5) Statistics Read error : 0 Jitter error (maybe fixed) : 0 Retry sector count : 0 Damaged sector count : 0
Track 03 Filename : /music/Cirque du Soleil - Kurios (2014) [FLAC]/03 - Bella Donna Twist.flac
Track gain : -7.17 dB Peak : 0.966278 CRC32 hash (test run) : BDF54FB6 CRC32 hash : BDF54FB6 CRC32 hash (skip zero) : C0F0E915 AccurateRip v1 signature : AF34C060 AccurateRip v2 signature : BB6C3DDE ->Accurately ripped (v2, confidence 5/5) Statistics Read error : 0 Jitter error (maybe fixed) : 0 Retry sector count : 0 Damaged sector count : 0
Track 04 Filename : /music/Cirque du Soleil - Kurios (2014) [FLAC]/04 - Gravity Levitas.flac
Track gain : -7.15 dB Peak : 0.966583 CRC32 hash (test run) : ADD3CCB9 CRC32 hash : ADD3CCB9 CRC32 hash (skip zero) : FB482311 AccurateRip v1 signature : 8F57AA9F AccurateRip v2 signature : BC1040A2 ->Accurately ripped (v2, confidence 5/5) Statistics Read error : 0 Jitter error (maybe fixed) : 0 Retry sector count : 0 Damaged sector count : 0
Track 05 Filename : /music/Cirque du Soleil - Kurios (2014) [FLAC]/05 - Monde Inverse.flac
Track gain : -7.63 dB Peak : 0.966339 CRC32 hash (test run) : F0B2781E CRC32 hash : F0B2781E CRC32 hash (skip zero) : 98797E48 AccurateRip v1 signature : 436F3C73 AccurateRip v2 signature : 82EC2F59 ->Accurately ripped (v2, confidence 5/5) Statistics Read error : 0 Jitter error (maybe fixed) : 0 Retry sector count : 0 Damaged sector count : 0
Track 06 Filename : /music/Cirque du Soleil - Kurios (2014) [FLAC]/06 - Hypnotique.flac
Track gain : -6.81 dB Peak : 0.966309 CRC32 hash (test run) : D1883122 CRC32 hash : D1883122 CRC32 hash (skip zero) : 02D5153C AccurateRip v1 signature : 9409266F AccurateRip v2 signature : 621D7409 ->Accurately ripped (v2, confidence 5/5) Statistics Read error : 0 Jitter error (maybe fixed) : 0 Retry sector count : 0 Damaged sector count : 0
Track 07 Filename : /music/Cirque du Soleil - Kurios (2014) [FLAC]/07 - Departure.flac
Track gain : -5.16 dB Peak : 0.966125 CRC32 hash (test run) : FF17A57D CRC32 hash : FF17A57D CRC32 hash (skip zero) : 32530389 AccurateRip v1 signature : A80408D0 AccurateRip v2 signature : 755A6571 ->Accurately ripped (v2, confidence 5/5) Statistics Read error : 0 Jitter error (maybe fixed) : 0 Retry sector count : 0 Damaged sector count : 0
Track 08 Filename : /music/Cirque du Soleil - Kurios (2014) [FLAC]/08 - Fearsome Flight.flac
Track gain : -7.41 dB Peak : 0.966553 CRC32 hash (test run) : 49CA9B1C CRC32 hash : 49CA9B1C CRC32 hash (skip zero) : 09BE670F AccurateRip v1 signature : 5A462F7C AccurateRip v2 signature : B098C604 ->Accurately ripped (v2, confidence 5/5) Statistics Read error : 0 Jitter error (maybe fixed) : 0 Retry sector count : 41 Damaged sector count : 0
Track 09 Filename : /music/Cirque du Soleil - Kurios (2014) [FLAC]/09 - Clouds.flac
Track gain : -6.58 dB Peak : 0.966461 CRC32 hash (test run) : 632D3AAA CRC32 hash : 632D3AAA CRC32 hash (skip zero) : 01FF0B68 AccurateRip v1 signature : 9C63F14B AccurateRip v2 signature : 61EEEDED ->Accurately ripped (v2, confidence 5/5) Statistics Read error : 0 Jitter error (maybe fixed) : 0 Retry sector count : 0 Damaged sector count : 0
Track 10 Filename : /music/Cirque du Soleil - Kurios (2014) [FLAC]/10 - Creature de Siam.flac
Track gain : -5.37 dB Peak : 0.966217 CRC32 hash (test run) : 91EC4C91 CRC32 hash : 91EC4C91 CRC32 hash (skip zero) : FBAB2FD5 AccurateRip v1 signature : 5B6F6188 AccurateRip v2 signature : 6B590AB6 ->Accurately ripped (v2, confidence 5/5) Statistics Read error : 0 Jitter error (maybe fixed) : 0 Retry sector count : 0 Damaged sector count : 0
Track 11 Filename : /music/Cirque du Soleil - Kurios (2014) [FLAC]/11 - Wat u no Wen.flac
Track gain : -6.66 dB Peak : 0.966705 CRC32 hash (test run) : FF44E431 CRC32 hash : FF44E431 CRC32 hash (skip zero) : 2EBDADA6 AccurateRip v1 signature : 8626034E AccurateRip v2 signature : C7E21B8C ->Accurately ripped (v2, confidence 4/4) Statistics Read error : 0 Jitter error (maybe fixed) : 0 Retry sector count : 0 Damaged sector count : 0
Track 12 Filename : /music/Cirque du Soleil - Kurios (2014) [FLAC]/12 - You Must Be Joking.flac
Track gain : -7.59 dB Peak : 0.966492 CRC32 hash (test run) : 102DE47E CRC32 hash : 102DE47E CRC32 hash (skip zero) : 4D85D7AF AccurateRip v1 signature : E446B9A6 AccurateRip v2 signature : D76FAF15 ->Accurately ripped (v2, confidence 5/5) Statistics Read error : 0 Jitter error (maybe fixed) : 0 Retry sector count : 0 Damaged sector count : 0
No errors occurred
End of status report
-----BEGIN XLD SIGNATURE-----WiqYycWTxB19jrgU0a8PhoZCS_P375mdjaMXbwIezlPrHsa6HkLjDelNbWUJPzJaQX2heiFg6_mMDUR.OY7s0WNbp9sVL1bAQ692PwG-----END XLD SIGNATURE-----

Содержание индексной карты (.CUE)

TITLE "Kurios"PERFORMER "Cirque du Soleil"CATALOG 4000051822200REM GENRE "Soundtrack"REM DATE "2014"REM DISCNUMBER 1REM TOTALDISCS 1REM DISCID AC0EAC0CREM REPLAYGAIN_ALBUM_GAIN -7.19 dBREM REPLAYGAIN_ALBUM_PEAK 0.967010FILE "01 - 11:11.flac" WAVE TRACK 01 AUDIO TITLE "11:11" ISRC CAC601410010 REM REPLAYGAIN_TRACK_GAIN -8.32 dB REM REPLAYGAIN_TRACK_PEAK 0.967010 INDEX 01 00:00:00FILE "02 - Steampunk Telegram.flac" WAVE TRACK 02 AUDIO TITLE "Steampunk Telegram" ISRC CAC601410020 REM REPLAYGAIN_TRACK_GAIN -7.40 dB REM REPLAYGAIN_TRACK_PEAK 0.966797 INDEX 01 00:00:00FILE "03 - Bella Donna Twist.flac" WAVE TRACK 03 AUDIO TITLE "Bella Donna Twist" ISRC CAC601410030 REM REPLAYGAIN_TRACK_GAIN -7.17 dB REM REPLAYGAIN_TRACK_PEAK 0.966278 INDEX 01 00:00:00FILE "04 - Gravity Levitas.flac" WAVE TRACK 04 AUDIO TITLE "Gravity Levitas" ISRC CAC601410040 REM REPLAYGAIN_TRACK_GAIN -7.15 dB REM REPLAYGAIN_TRACK_PEAK 0.966583 INDEX 01 00:00:00FILE "05 - Monde Inverse.flac" WAVE TRACK 05 AUDIO TITLE "Monde Inverse" ISRC CAC601410050 REM REPLAYGAIN_TRACK_GAIN -7.63 dB REM REPLAYGAIN_TRACK_PEAK 0.966339 INDEX 01 00:00:00FILE "06 - Hypnotique.flac" WAVE TRACK 06 AUDIO TITLE "Hypnotique" ISRC CAC601410060 REM REPLAYGAIN_TRACK_GAIN -6.81 dB REM REPLAYGAIN_TRACK_PEAK 0.966309 INDEX 01 00:00:00FILE "07 - Departure.flac" WAVE TRACK 07 AUDIO TITLE "Departure" ISRC CAC601410070 REM REPLAYGAIN_TRACK_GAIN -5.16 dB REM REPLAYGAIN_TRACK_PEAK 0.966125 INDEX 01 00:00:00FILE "08 - Fearsome Flight.flac" WAVE TRACK 08 AUDIO TITLE "Fearsome Flight" ISRC CAC601410080 REM REPLAYGAIN_TRACK_GAIN -7.41 dB REM REPLAYGAIN_TRACK_PEAK 0.966553 INDEX 01 00:00:00FILE "09 - Clouds.flac" WAVE TRACK 09 AUDIO TITLE "Clouds" ISRC CAC601410090 REM REPLAYGAIN_TRACK_GAIN -6.58 dB REM REPLAYGAIN_TRACK_PEAK 0.966461 INDEX 01 00:00:00FILE "10 - Creature de Siam.flac" WAVE TRACK 10 AUDIO TITLE "Creature de Siam" ISRC CAC601410100 REM REPLAYGAIN_TRACK_GAIN -5.37 dB REM REPLAYGAIN_TRACK_PEAK 0.966217 INDEX 01 00:00:00FILE "11 - Wat u no Wen.flac" WAVE TRACK 11 AUDIO TITLE "Wat u no Wen" ISRC CAC601410110 REM REPLAYGAIN_TRACK_GAIN -6.66 dB REM REPLAYGAIN_TRACK_PEAK 0.966705 INDEX 01 00:00:00FILE "12 - You Must Be Joking.flac" WAVE TRACK 12 AUDIO TITLE "You Must Be Joking" ISRC CAC601410120 REM REPLAYGAIN_TRACK_GAIN -7.59 dB REM REPLAYGAIN_TRACK_PEAK 0.966492 INDEX 01 00:00:00

Лог проверки качества

AUDIOCHECKER v2.0 beta (build 457) - by Dester - opdester@freemail.hu~~~~~~~~~~~~~~~~~~~~~~~~~~~~~~~~~~-=== DO NOT EDIT THIS FILE! ===-
Path: ...\Cirque du Soleil - Kurios (2014) [FLAC]
01 -=- 01 - 11-11.flac -=- CDDA (100%)02 -=- 02 - Steampunk Telegram.flac -=- CDDA (99%)03 -=- 03 - Bella Donna Twist.flac -=- CDDA (100%)04 -=- 04 - Gravity Levitas.flac -=- CDDA (100%)05 -=- 05 - Monde Inverse.flac -=- CDDA (100%)06 -=- 06 - Hypnotique.flac -=- CDDA (100%)07 -=- 07 - Departure.flac -=- CDDA (99%)08 -=- 08 - Fearsome Flight.flac -=- CDDA (100%)09 -=- 09 - Clouds.flac -=- CDDA (100%)10 -=- 10 - Creature de Siam.flac -=- CDDA (100%)11 -=- 11 - Wat u no Wen.flac -=- CDDA (100%)12 -=- 12 - You Must Be Joking.flac -=- CDDA (100%)
Summary 99,83% CDDA
193295892


[torrentc.info]_t_5613031.torrent
Торрент: Зарегистрирован ·  [ 2018-09-15 21:11 ] ·  47c08aaf84d4dcfad792be0d4c236b8bff4024b4

17 KB

Статус: проверено
Скачан: 0 раз
Размер: 415 MB
Оценка: 
(Голосов: 0)
Сказали спасибо: 0  Спасибо
Похожие темы
[Профиль]    [ЛС]
Показать сообщения:    
Ответить на тему

Текущее время: Сегодня 05:54

Часовой пояс: GMT + 7



Вы не можете начинать темы
Вы не можете отвечать на сообщения
Вы не можете редактировать свои сообщения
Вы не можете удалять свои сообщения
Вы не можете голосовать в опросах
Вы не можете прикреплять файлы к сообщениям
Вы можете скачивать файлы