Веселенькая поездка / Веселая поездочка / Getting There (Стив Пурселл / Steve Purcell) [2002, США, Комедия, DVDRip] AVO (Андрей Дольский)

Ответить на тему
Статистика раздачи [Обновить пиров]
Размер:  1.37 GB   |    Зарегистрирован:  1 месяц 7 дней   |    Скачан:  0 раз

Полного источника не было: Никогда

 
   
 
 
 
Автор Сообщение

torrentc.info

Создавать темы 15-Сен-2018 20:04

[Цитировать]

Веселенькая поездка / Веселая поездочка / Getting There
«16 лет и права в кармане»
[img=right]https://i6.imageban.ru/out/2018/09/15/db3355895c181...13a4a8.png[/img]
Страна: США
Жанр: Комедия
Год выхода: 2002
Продолжительность: 01:25:30
Перевод: Авторский (одноголосый закадровый) Андрей Дольский
Субтитры: нет
Режиссер: Стив Пурселл / Steve Purcell
В ролях: Мэри-Кейт Олсен, Эшли Олсен, Билли Аарон Браун, Хезер Линделль, Джефф Д’Агостино,
Тэлон Эллиторп, Холли Таун, Александра Пикатто, Джанет Ганн, Уильям Бумиллер
Описание: Тэйлор и Кайли Хантер — славные 16-летние подростки, только что получившие
водительские удостоверения. Забирайтесь в их классический «мустанг» с откидным верхом и
отправляйтесь все вместе в их первое путешествие по дорогам Америки на Зимние игры в Юте.
Классная экипировка, парни еще класснее. И масса разных друзей по дороге.
Но приготовьтесь к отклонениям от маршрута, делая виражи поистине олимпийского размаха. Что
их привлечет: лыжные трассы, покрытые мягким, как бархат, снегом, или роскошный «охотничий
домик» Стена Эриксена в Оленьей долине, или выступления сноубордистов в Парк Сити? Приедут
ли они вовремя на Зимние игры?
Доп. информация: Дорожка с А. Дольским синхронизирована и наложена ale_x2008 при помощи Sony Vegas и VirtualDubMod.
За дорожку благодарим - неизвестного человека (просто забыл кто предоставил) - файл назывался Getting There - Vizgunov


Сэмпл: https://yadi.sk/i/XV3MEpZ86mydqg
Качество видео: DVDRip
Формат файла: AVI
Видео: 704x528 (1.33:1), 25 fps, XviD build 73 ~2087 kbps avg, 0.22 bit/pixel
Аудио: 48 kHz, AC3 Dolby Digital, 2/0 (L,R) ch, ~192 kbps

MediaInfo

Веселенькая поездка (Getting There) [by ale_x2008].aviFormat : AVIFormat/Info : Audio Video InterleaveFile size : 1.37 GiBDuration : 1 h 25 minOverall bit rate : 2 290 kb/sMovie name : Веселенькая поездка (Getting There) EngDirector : DVDRip by ale_x2008Genre : ComedyWriting application : VirtualDubMod 1.5.10.3 (build 2550/release)Original source form/Name : MovieCopyright : Edich2Comment : 08.09.2018
VideoID : 0Format : MPEG-4 VisualFormat profile : Advanced Simple@L5Format settings : BVOP1Format settings, BVOP : 1Format settings, QPel : NoFormat settings, GMC : No warppointsFormat settings, Matrix : Default (MPEG)Codec ID : XVIDCodec ID/Hint : XviDDuration : 1 h 25 minBit rate : 2 088 kb/sWidth : 704 pixelsHeight : 528 pixelsDisplay aspect ratio : 4:3Frame rate : 25.000 FPSColor space : YUVChroma subsampling : 4:2:0Bit depth : 8 bitsScan type : ProgressiveCompression mode : LossyBits/(Pixel*Frame) : 0.225Stream size : 1.25 GiB (91%)Writing library : XviD 73
AudioID : 1Format : AC-3Format/Info : Audio Coding 3Codec ID : 2000Duration : 1 h 25 minBit rate mode : ConstantBit rate : 192 kb/sChannel(s) : 2 channelsChannel positions : Front: L RSampling rate : 48.0 kHzFrame rate : 31.250 FPS (1536 SPF)Bit depth : 16 bitsCompression mode : LossyStream size : 117 MiB (8%)Alignment : Split accross interleavesInterleave, duration : 40 ms (1.00 video frame)Interleave, preload duratio : 500 msService kind : Complete Main


[torrentc.info]_t_5613995.torrent
Торрент: Зарегистрирован ·  [ 2018-09-15 20:04 ] ·  1f271f4f880564732314b5f64a562898fa00fdbe

14 KB

Статус: проверено
Скачан: 0 раз
Размер: 1.37 GB
Оценка: 
(Голосов: 0)
Сказали спасибо: 0  Спасибо
Похожие темы
[Профиль]    [ЛС]
Показать сообщения:    
Ответить на тему

Текущее время: Сегодня 05:54

Часовой пояс: GMT + 7



Вы не можете начинать темы
Вы не можете отвечать на сообщения
Вы не можете редактировать свои сообщения
Вы не можете удалять свои сообщения
Вы не можете голосовать в опросах
Вы не можете прикреплять файлы к сообщениям
Вы можете скачивать файлы