Ты водишь! / Tag (Джефф Томсич / Jeff Tomsic) [2018, США, комедия, BDRip-AVC] Dub + Sub (Rus)

Ответить на тему
 
Автор Сообщение

torrentc.info

Создавать темы 14-Сен-2018 12:41

[Цитировать]

Ты водишь! / Tag
«Основано на реальных событиях. Зуб даём!»
-[img=right]https://i5.imageban.ru/out/2018/09/06/4593f0434ae2b...56de5c.png[/img]
Год выхода: 2018
Выпущено: США / New Line Cinema
Жанр: комедия
Продолжительность: 01:40:33
Перевод: Профессиональный (полное дублирование)
Субтитры: Русские (форсированные)
Навигация по главам: Есть (11 глав)-Режиссер:
Джефф Томсич / Jeff Tomsic-В ролях:
Эд Хелмс, Джереми Реннер, Джон Хэмм, Джейк Джонсон, Хэннибал Бёресс, Аннабелль Уоллис, Айла Фишер, Рашида Джонс, Лил Релл, Нора Данн, Лесли Бибб-О фильме:
Каждый год в течение месяца пятеро друзей участвуют в беспощадно навороченной версии игры в кошки-мышки. Они играют в нее с первого класса, чтобы, рискуя собственной шеей, работой и отношениями, одолеть противника с победоносным криком: «Ты водишь!»
В этом году кошки-мышки приходятся на свадьбу единственного непобежденного игрока, что должно сделать из него легкую мишень. Но он знает, что они придут… и он готов.-
| | IMDB | КиноПоиск | Сэмпл |-Качество: BDRip-AVC [Tag.2018.MULTi.COMPLETE.BLURAY-EXTREME]
Формат файла: MKV
Видео: 1088x456 (2,40:1), 23.976 fps, x264 ~1594 kbps avg, 0.134 bit/pixel
Аудио: 48 kHz, AC3 Dolby Digital, 3/2 (L,C,R,l,r) + LFE ch, ~384.00 kbps avg
Формат файла субтитров: Softsub (.srt*)-
[img]https://i5.imageban.ru/thumbs/2018.09.13/f0efb5fec8b608942cc004fea2b9c760.jpg[/img]-[img]https://i3.imageban.ru/thumbs/2018.09.13/ebff2691732ed3252ea60d82cc3f8a71.jpg[/img][img]https://i6.imageban.ru/thumbs/2018.09.13/dcc2f0e07a9d77d415ad194dec8ad7bc.jpg[/img][img]https://i4.imageban.ru/thumbs/2018.09.13/719727ed5fb391c0d0a9397e303d3d44.jpg[/img][img]https://i6.imageban.ru/thumbs/2018.09.13/a455e38fb08fa595389f53ecda55857d.jpg[/img]MediaInfo">

Скриншоты[img]https://i5.imageban.ru/thumbs/2018.09.13/f0efb5fec8b608942cc004fea2b9c760.jpg[/img]-[img]https://i3.imageban.ru/thumbs/2018.09.13/ebff2691732ed3252ea60d82cc3f8a71.jpg[/img][img]https://i6.imageban.ru/thumbs/2018.09.13/dcc2f0e07a9d77d415ad194dec8ad7bc.jpg[/img][img]https://i4.imageban.ru/thumbs/2018.09.13/719727ed5fb391c0d0a9397e303d3d44.jpg[/img][img]https://i6.imageban.ru/thumbs/2018.09.13/a455e38fb08fa595389f53ecda55857d.jpg[/img]MediaInfo

Общее
Полное имя                               : D:\Ty_vodish`_2018_BDRip-AVC_iTunes_by_Dalemake.mkv
Формат файла                                   : Matroska
Версия формата                           : Version 4 / Version 2
Размер файла                             : 1,42 Гбайт
Продолжительность                        : 1 ч. 40 м.
Общий поток                              : 2018 Кбит/сек
Название фильма                          : [Tag_2018__by Dalemake]
Дата кодирования                         : UTC 2018-09-13 17:56:33
Программа кодирования                    : mkvmerge v7.8.0 ('River Man') 32bit built on Apr  3 2015 12:11:22
Библиотека кодирования                   : libebml v1.3.1 + libmatroska v1.4.2
DURATION                                 : 01:35:28.729000000
NUMBER_OF_FRAMES                         : 17
NUMBER_OF_BYTES                          : 836
_STATISTICS_WRITING_APP                  : mkvmerge v7.8.0 ('River Man') 32bit built on Apr  3 2015 12:11:22
_STATISTICS_WRITING_DATE_UTC             : 2018-09-13 17:56:33
_STATISTICS_TAGS                         : BPS DURATION NUMBER_OF_FRAMES NUMBER_OF_BYTES
Видео
Идентификатор                            : 1
Формат файла                                   : AVC
Формат файла/Информация                        : Advanced Video Codec
Профиль формата                          : High@L4.1
Параметр CABAC формата                   : Да
Параметр ReFrames формата                : 12 кадров
Идентификатор кодека                     : V_MPEG4/ISO/AVC
Продолжительность                        : 1 ч. 40 м.
Битрейт                                  : 1594 Кбит/сек
Ширина                                   : 1088 пикселей
Высота                                   : 456 пикселей
Соотношение сторон                       : 2,40:1
Частота кадров                           : 23,976 кадра/сек
Цветовое пространство                    : YUV
Субдискретизация насыщенности            : 4:2:0
Битовая глубина                          : 8 бит
Тип развёртки                            : Прогрессивная
Бит/(Пиксели*Кадры)                      : 0.134
Размер потока                            : 1,12 Гбайт (79%)
Заголовок                                : [Tag_2018__by Dalemake]
Библиотека кодирования                   : x264 core 152 r2851kMod ba24899
Настройки программы                      : cabac=1 / ref=12 / deblock=1:-2:-2 / analyse=0x3:0x133 / me=umh / subme=10 / psy=1 / fade_compensate=0.00 / psy_rd=1.00:0.00 / mixed_ref=1 / me_range=48 / chroma_me=1 / trellis=2 / 8x8dct=1 / cqm=0 / deadzone=21,11 / fast_pskip=1 / chroma_qp_offset=-4 / threads=6 / lookahead_threads=1 / sliced_threads=0 / nr=0 / decimate=0 / interlaced=0 / bluray_compat=0 / constrained_intra=0 / bframes=11 / b_pyramid=2 / b_adapt=2 / b_bias=0 / direct=1 / weightb=1 / open_gop=0 / weightp=2 / keyint=240 / keyint_min=23 / scenecut=40 / intra_refresh=0 / rc_lookahead=60 / rc=crf / mbtree=0 / crf=18.7000 / qcomp=0.60 / qpmin=0 / qpmax=69 / qpstep=4 / vbv_maxrate=50000 / vbv_bufsize=62500 / crf_max=0.0 / nal_hrd=none / filler=0 / ip_ratio=1.40 / pb_ratio=1.35 / aq=1:1.00
Язык                                     : English
Default                                  : Да
Forced                                   : Нет
DURATION                                 : 01:40:33.871000000
NUMBER_OF_FRAMES                         : 144668
NUMBER_OF_BYTES                          : 1231395744
_STATISTICS_WRITING_APP                  : mkvmerge v7.8.0 ('River Man') 32bit built on Apr  3 2015 12:11:22
_STATISTICS_WRITING_DATE_UTC             : 2018-09-13 17:56:33
_STATISTICS_TAGS                         : BPS DURATION NUMBER_OF_FRAMES NUMBER_OF_BYTES
Аудио
Идентификатор                            : 2
Формат файла                                   : AC-3
Формат файла/Информация                        : Audio Coding 3
Расширение режима                        : CM (complete main)
Параметр Endianness формата              : Big
Идентификатор кодека                     : A_AC3
Продолжительность                        : 1 ч. 40 м.
Вид битрейта                             : Постоянный
Битрейт                                  : 384 Кбит/сек
Каналы                                   : 6 каналов
Расположение каналов                     : Front: L C R, Side: L R, LFE
Частота                                  : 48,0 КГц
Битовая глубина                          : 16 бит
Метод сжатия                             : С потерями
Размер потока                            : 276 Мбайт (19%)
Заголовок                                : Dub - iTunes Russia
Язык                                     : Russian
Default                                  : Да
Forced                                   : Нет
Текст
Идентификатор                            : 3
Формат файла                                   : UTF-8
Идентификатор кодека                     : S_TEXT/UTF8
Идентификатор кодека/Информация          : UTF-8 Plain Text
Заголовок                                : Forced
Язык                                     : Russian
Default                                  : Да
Forced                                   : Нет
Меню
00:00:00.000                             : en:00:00:00.000
00:09:24.230                             : en:00:09:24.230
00:17:04.482                             : en:00:17:04.482
00:28:18.864                             : en:00:28:18.864
00:36:56.214                             : en:00:36:56.214
00:46:16.399                             : en:00:46:16.399
00:56:28.260                             : en:00:56:28.260
01:06:09.465                             : en:01:06:09.465
01:18:02.720                             : en:01:18:02.720
01:26:30.102                             : en:01:26:30.102
01:35:55.959                             : en:01:35:55.959
-
[Профиль]    [ЛС]
Показать сообщения:    
Ответить на тему

Текущее время: Сегодня 23:10

Часовой пояс: GMT + 7



Вы не можете начинать темы
Вы не можете отвечать на сообщения
Вы не можете редактировать свои сообщения
Вы не можете удалять свои сообщения
Вы не можете голосовать в опросах
Вы не можете прикреплять файлы к сообщениям
Вы не можете скачивать файлы