Любовное сражение во сне / Combat d\'amour en songe / Love Torn in Dream (Рауль Руис / Raoul Ruiz) [2000, Франция, Португалия, Чили, драма, фантазия, DVDRip] Sub Rus (badsteel), Eng + original Fra

Ответить на тему
Статистика раздачи [Обновить пиров]
Размер:  2.18 GB   |    Зарегистрирован:  3 месяца 2 дня   |    Скачан:  2 раза

Полного источника не было: 2 месяца 7 дней

 
   
 
 
 
Автор Сообщение

torrentc.info

Создавать темы 13-Сен-2018 02:27

[Цитировать]

Любовное сражение во сне / Combat d'amour en songe / Love Torn in Dream
[img=right]https://i2.imageban.ru/out/2018/09/12/7b5384cc00491...3e09c9.jpg[/img]
Страна: Франция, Португалия, Чили
Жанр: драма, фантазия
Год выхода: 2000
Продолжительность: 02:01:55
Перевод: Субтитры
Субтитры: русские - badsteel
Оригинальная дорожка: французский

Режиссер: Рауль Руис / Raoul Ruiz
В ролях: Мельвиль Пупо, Эльза Зильберштейн, Ламбер Вильсон, Кристиан Вадим, Диогу Дорья, Рожериу Самора
Описание: В 2000 году Рауль Руис создал, вероятно, лучшее киновоплощение борхесовской идеи о саде расходящихся тропинок. Взяв за основу 9 элементов-историй (о студенте, удручённом солипсическими размышлениями Декарта, о призраках-пиратах в поисках сокровища, об интернет-сайте, предсказывающем будущее), он составляет из них все мыслимые комбинации, каждая из которых образует новый сюжет. Новые истории дополняют предыдущие, складываясь в причудливое повествование, в котором герои путешествуют во времени, блуждают в собственных снах и находят в них свою судьбу.
Сэмпл
Качество видео: DVDRip
Формат файла: AVI
Видео: 688x416 (1.65:1), 25 fps, XviD build 73 ~2295 kbps avg, 0.32 bit/pixel
Аудио: 48 kHz, AC3 Dolby Digital, 2/0 (L,R) ch, ~256 kbps
Формат файла субтитров: softsub (SRT)

Фрагмент субтитров

864
01:02:48,240 --> 01:02:52,677
Вы похожи на персонажа одной
португальской картины начала века,
865
01:02:52,720 --> 01:02:54,233
я видел её на выставке
в Бразильском Дворце.
866
01:02:54,360 --> 01:02:58,672
− Интересно было бы взглянуть. Что это
за выставка? − "Призраки и замки Синтры".
867
01:02:58,800 --> 01:03:00,028
Раз уж на то пошло,
868
01:03:00,800 --> 01:03:04,190
вы похожи на одну из фигур с картины,
которую я видел в музее Гульбенкяна,
869
01:03:04,240 --> 01:03:09,030
на выставке "Картины и традиции
португальских евреев в 19 веке".
870
01:03:09,720 --> 01:03:10,789
Странно.
871
01:03:10,920 --> 01:03:13,354
Нам следует извлечь урок
из этих совпадений.
872
01:03:14,080 --> 01:03:15,798
Вы знаете историю
о человеке-хамелеоне?
873
01:03:16,400 --> 01:03:17,799
Нет.
874
01:03:17,960 --> 01:03:19,951
Жил-был человек,
который не любил себя.
875
01:03:21,320 --> 01:03:23,754
Эту историю мне подсказала
похожая картина,
876
01:03:23,880 --> 01:03:27,475
найденная на чердаке, сгоревшем
во время великого пожара в 1947 году.

MediaInfo

GeneralComplete name : H:\Combat.d'amour.en.songe.2000.DVDRip_[2.18]_[teko]\Combat.d'amour.en.songe.2000.DVDRip_[2.18].aviFormat : AVIFormat/Info : Audio Video InterleaveFormat profile : OpenDMLFile size : 2.18 GiBDuration : 2h 1mnOverall bit rate : 2 558 KbpsWriting application : VirtualDubMod 1.5.10.3 | www.virtualdub-fr.org || (build 2550/release)Writing library : VirtualDubMod build 2550/release
VideoID : 0Format : MPEG-4 VisualFormat profile : Advanced Simple@L5Format settings, BVOP : 2Format settings, QPel : NoFormat settings, GMC : No warppointsFormat settings, Matrix : CustomCodec ID : XVIDCodec ID/Hint : XviDDuration : 2h 1mnBit rate : 2 290 KbpsWidth : 688 pixelsHeight : 416 pixelsDisplay aspect ratio : 5:3Frame rate : 25.000 fpsColor space : YUVChroma subsampling : 4:2:0Bit depth : 8 bitsScan type : ProgressiveCompression mode : LossyBits/(Pixel*Frame) : 0.320Stream size : 1.95 GiB (90%)Writing library : XviD 73
AudioID : 1Format : AC-3Format/Info : Audio Coding 3Mode extension : CM (complete main)Format settings, Endianness : BigCodec ID : 2000Duration : 2h 1mnBit rate mode : ConstantBit rate : 256 KbpsChannel(s) : 2 channelsChannel positions : Front: L RSampling rate : 48.0 KHzFrame rate : 31.250 fps (1536 spf)Compression mode : LossyStream size : 223 MiB (10%)Alignment : Split accross interleavesInterleave, duration : 40 ms (1.00 video frame)Interleave, preload duratio : 500 ms
:--


[torrentc.info]_t_5612744.torrent
Торрент: Зарегистрирован ·  [ 2018-09-13 02:27 ] ·  56f0345dc9c226f7a7ae053dc097a07ac294855b

12 KB

Статус: проверено
Скачан: 2 раз
Размер: 2.18 GB
Оценка: 
(Голосов: 0)
Сказали спасибо: 0  Спасибо
Похожие темы
[Профиль]    [ЛС]
Показать сообщения:    
Ответить на тему

Текущее время: Сегодня 23:29

Часовой пояс: GMT + 7



Вы не можете начинать темы
Вы не можете отвечать на сообщения
Вы не можете редактировать свои сообщения
Вы не можете удалять свои сообщения
Вы не можете голосовать в опросах
Вы не можете прикреплять файлы к сообщениям
Вы можете скачивать файлы