Рыжик / Poil de carotte / Carrot head (Ришар Боренже / Richard Bohringer) [2003, Франция, драма, DVDRip] Sub (Rus, Eng) + Original Fra

Ответить на тему
Статистика раздачи [Обновить пиров]
Размер:  702 MB   |    Зарегистрирован:  4 месяца 9 дней   |    Скачан:  0 раз

Полного источника не было: Никогда

 
   
 
 
 
Автор Сообщение

torrentc.info

Создавать темы 12-Сен-2018 01:21

[Цитировать]

Рыжик / Poil de carotte / Carrot head
Страна: Франция
Жанр: драма
Год выхода: 2003
Продолжительность: 01:29:43
Перевод: Субтитры
Субтитры: русские (ifirf86), английские
Оригинальная аудиодорожка: французский
Режиссер: Ришар Боренже / Richard Bohringer
В ролях: Фанни Коттансон, Антуан Нгуйен, Ришар Боренже, Джером Хардлэй, Лу Боринер, Констанс Долле, Анри Марто, Дамьен Жуйро и др.
Описание: Рыжеволосый Франсуа, откликающийся на прозвище «Рыжик», становится яблоком раздора между своей матерью и отцом, которые давно стали чужими друг другу, хотя формально и не развелись. Мальчик отчаянно ищет любви у матери и понимания у отца, но его попытки пробить стену равнодушия оказываются тщетны. Но несмотря на постоянную материнскую трепку и вечные отцовские обманы он не теряет оптимизма и надеется на свое маленькое счастье.
По мотивам одноимённого произведения Жюля Ренара: "Рыжик" (1894).
Сэмпл: http://sendfile.su/1441409
Качество видео: DVDRip
Формат файла: AVI
Видео: MPEG-4 Visual at 972 Кбит/сек; 560 x 336 (1.667) at 25.000 fps
Аудио: MPEG Audio at 112 Кбит/сек; 2 канала, 48,0 КГц
Формат файла субтитров: softsub (SRT)

MediaInfo

ОбщееПолное имя : D:\Перевод фильмов\Poil de carotte 2003\Poil de carotte 2003.aviФормат файла : AVIФормат файла/Информация : Audio Video InterleaveРазмер файла : 702 МбайтПродолжительность : 1 ч. 29 м.Общий поток : 1093 Кбит/секПрограмма кодирования : VirtualDubMod 1.5.10.2 (build 2540/release)Библиотека кодирования : VirtualDubMod build 2540/release
ВидеоИдентификатор : 0Формат файла : MPEG-4 VisualПрофиль формата : Advanced Simple@L5Настройки формата : BVOP1Параметр BVOP формата : 1Параметр QPel формата : НетПараметр GMC формата : Без точки переходаПараметр матрицы формата : Default (MPEG)Режим смешивания : Сжатый битовый потокИдентификатор кодека : XVIDИдентификатор кодека/Подсказка : XviDПродолжительность : 1 ч. 29 м.Битрейт : 972 Кбит/секШирина : 560 пикселейВысота : 336 пикселейСоотношение сторон : 5:3Частота кадров : 25,000 кадров/секЦветовое пространство : YUVСубдискретизация насыщенности : 4:2:0Битовая глубина : 8 битТип развёртки : ПрогрессивнаяМетод сжатия : С потерямиБит/(Пиксели*Кадры) : 0.207Размер потока : 624 Мбайт (89%)Библиотека кодирования : XviD 1.2.0.dev47 (UTC 2006-11-01)
АудиоИдентификатор : 1Формат файла : MPEG AudioВерсия формата : Version 1Профиль формата : Layer 3Настройки формата : Joint stereoИдентификатор кодека : 55Идентификатор кодека/Подсказка : MP3Продолжительность : 1 ч. 29 м.Вид битрейта : ПостоянныйБитрейт : 112 Кбит/секКаналы : 2 каналаЧастота : 48,0 КГцЧастота кадров : 41,667 кадра/сек (1152 SPF)Метод сжатия : С потерямиРазмер потока : 71,9 Мбайт (10%)Выравнивание : Разделение по промежуткамПродолжительность промежутка : 40 мс. (1,00 видеокадр)Время предзагрузки промежутка : 500 мс.Библиотека кодирования : LAME3.97bНастройки программы : -m j -V 4 -q 2 -lowpass 16 -b 112

Скриншот c названием фильма

Скриншоты

Пример субтитров

1
00:00:06,000 --> 00:00:09,000
РЫЖИК
2
00:00:09,424 --> 00:00:12,424
По мотивам одноимённого произведения
Жюля Ренара.
3
00:00:48,200 --> 00:00:51,060
- Пока, Лепик! Увидимся.
- Пока, Мартине!
4
00:00:51,085 --> 00:00:53,805
Эй, на каникулах отправляешься на море?
Вот, счастливчик!
5
00:00:53,830 --> 00:00:57,000
Чтобы пообедать на пляже,
твоя мама даже зонт купила.
6
00:00:58,013 --> 00:01:01,561
- Убегайте, пока они не передумали!
- Пусть попробуют!
7
00:01:02,340 --> 00:01:06,178
- А ты был на море?
- Да, но всё время шли дожди.
8
00:01:06,335 --> 00:01:08,632
- А ты?
- Нет, но мой отец бывал там по делам.
9
00:01:08,749 --> 00:01:12,124
Он плавал во всех морях Франции и сказал,
что пролив Ла-Манш самый холодный.
10
00:01:12,390 --> 00:01:17,171
Я поеду в Перигор в конце месяца.
Будем спать в палатке. Супер!
11
00:01:20,000 --> 00:01:21,703
Вон, моя мама.
12
00:01:22,265 --> 00:01:25,358
- А твоей мамы нет?
- Не смеши меня! Я слишком взрослый.
13
00:01:26,571 --> 00:01:29,758
- Ладно, пока Лепик!
- Пока, Воссо!
14
00:02:52,501 --> 00:02:54,625
Эй! Для кого это?
15
00:02:59,946 --> 00:03:03,768
(Бормочет про себя расчёты)
16
00:03:13,413 --> 00:03:17,761
- Ты меня напугал.
- Прости, мама. Смотри! Это тебе!
17
00:03:21,279 --> 00:03:25,419
Не видишь, я занята? Положи у двери.
18
00:03:25,855 --> 00:03:31,199
Ладно, на чём я остановилась? Шесть на...
19
00:03:31,370 --> 00:03:35,340
Не надо стоять так рядом со мной,
ты же знаешь, как я это ненавижу.
20
00:03:35,399 --> 00:03:36,728
Пойди, прими ванну.
21
00:03:36,753 --> 00:03:39,783
- Не беспокойся, мама, я вчера уже принимал её.
- И что?


[torrentc.info]_t_5612338.torrent
Торрент: Зарегистрирован ·  [ 2018-09-12 01:21 ] ·  9928c2f72877e7acc97debc9a8abf1090a313a24

14 KB

Статус: проверено
Скачан: 0 раз
Размер: 702 MB
Оценка: 
(Голосов: 0)
Сказали спасибо: 0  Спасибо
Похожие темы
[Профиль]    [ЛС]
Показать сообщения:    
Ответить на тему

Текущее время: Сегодня 20:52

Часовой пояс: GMT + 7



Вы не можете начинать темы
Вы не можете отвечать на сообщения
Вы не можете редактировать свои сообщения
Вы не можете удалять свои сообщения
Вы не можете голосовать в опросах
Вы не можете прикреплять файлы к сообщениям
Вы можете скачивать файлы