Жажда смерти / Death Wish (Элай Рот / Eli Roth) [2018, США, боевик, триллер, криминал, HDRip] Dub (iTunes)

Ответить на тему
 
Автор Сообщение

torrentc.info

Создавать темы 11-Сен-2018 14:20

[Цитировать]

Жажда смерти / Death Wish
Страна: США
Жанр: боевик, триллер, криминал
Год выхода: 2018
Продолжительность: 01:46:43
Перевод: Профессиональный (дублированный) iTunes
Субтитры: нет
Режиссер: Элай Рот / Eli Roth
В ролях: Брюс Уиллис
Винсент Д’Онофрио
Элизабет Шу
Камила Морроне
Дин Норрис
Бо Напп
Кимберли Элиз
Лен Кариу
Джек Кеси
Ронни Джин Блевинс
Описание: Пол Керси — хирург, привыкший вытаскивать людей с того света после криминальных разборок. Но после того, как его жена и дочь становятся жертвами уличной банды, а полиция бездействует, он берет карающий меч правосудия в свои руки. Видео изобретательных убийств преступников покоряют интернет-топы, а среди жителей города расходятся слухи о неуловимом народном мстителе, которому теперь принадлежит весь город. Он мстит бодро, весело и со вкусом.
Доп. информация: https://www.kinopoisk.ru/film/409171/
Сэмпл: http://sendfile.su/1441314
Качество видео: HDRip найден в сети
Формат файла: AVI
Видео: 688x288 (2.39:1), 23.976 fps, XviD build 73 ~840 kbps avg, 0.18 bit/pixel
Аудио: 48 kHz, MPEG Layer 3, 2 ch, ~128.00 kbps avg

MediaInfo

GeneralComplete name : S:\Zhazhda.Smerti.2018.XviD.745Mb.BDRip..aviFormat : AVIFormat/Info : Audio Video InterleaveFile size : 747 MiBDuration : 1h 46mnOverall bit rate : 978 KbpsWriting application : VirtualDubMod 1.5.10.3 | www.virtualdub-fr.org || (build 2550/release)Writing library : VirtualDubMod build 2550/release
VideoID : 0Format : MPEG-4 VisualFormat profile : Advanced Simple@L5Format settings, BVOP : 1Format settings, QPel : NoFormat settings, GMC : No warppointsFormat settings, Matrix : CustomCodec ID : XVIDCodec ID/Hint : XviDDuration : 1h 46mnBit rate : 841 KbpsWidth : 688 pixelsHeight : 288 pixelsDisplay aspect ratio : 2.40:1Frame rate : 23.976 fpsColor space : YUVChroma subsampling : 4:2:0Bit depth : 8 bitsScan type : ProgressiveCompression mode : LossyBits/(Pixel*Frame) : 0.177Stream size : 642 MiB (86%)Writing library : XviD 73
AudioID : 1Format : MPEG AudioFormat version : Version 1Format profile : Layer 3Codec ID : 55Codec ID/Hint : MP3Duration : 1h 46mnBit rate mode : ConstantBit rate : 128 KbpsChannel(s) : 2 channelsSampling rate : 48.0 KHzCompression mode : LossyStream size : 97.7 MiB (13%)Alignment : Aligned on interleavesInterleave, duration : 42 ms (1.00 video frame)Interleave, preload duratio : 504 msWriting library : LAME3.99rEncoding settings : -m s -V 4 -q 0 -lowpass 17 -b 128

Скриншот c названием фильма

Скриншоты

[Профиль]    [ЛС]
Показать сообщения:    
Ответить на тему

Текущее время: Сегодня 12:28

Часовой пояс: GMT + 7



Вы не можете начинать темы
Вы не можете отвечать на сообщения
Вы не можете редактировать свои сообщения
Вы не можете удалять свои сообщения
Вы не можете голосовать в опросах
Вы не можете прикреплять файлы к сообщениям
Вы не можете скачивать файлы