Солдат-якудза: бунтарь в армии / Shin heitai yakuza: Kasen (Ясудзо Масумура / Yasuzô Masumura) [1972, Япония, боевик, военный, DVDRip] VO (Виктор Рутилов)

Ответить на тему
Статистика раздачи [Обновить пиров]
Размер:  1.37 GB   |    Зарегистрирован:  3 месяца 1 день   |    Скачан:  0 раз

Полного источника не было: Никогда

 
   
 
 
 
Автор Сообщение

torrentc.info

Создавать темы 09-Сен-2018 17:00

[Цитировать]

Солдат-якудза: бунтарь в армии / Shin heitai yakuza: Kasen
Страна: Япония
Жанр: боевик, военный
Год выхода: 1972
Продолжительность: 01:32:18
Перевод: Одноголосый закадровый Виктор Рутилов
Субтитры: нет
Режиссер: Ясудзо Масумура / Yasuzô Masumura
В ролях: Синтаро Кацу, Такахиро Тамура, Митиё Оокусу, Дзё Сисидо, Хидэдзи Отаки, Джан Такигава, Тэруо Мацуяма, Ямито Джиро, Кано Сатцу
Описание: Это последняя, 9 часть саги о Солдате-якудза и единственная цветная версия. На пути из Китая, где японская армия постепенно теряет свои позиции, Кисабуро, неуживчивый солдат, постоянно нарушающий приказы командиров, влюбляется в китайскую шпионку, врага своей страны. Совсем скоро ему придётся выбирать между своей любовью и долгом перед родиной. Фильм представляет собой удивительную смесь комедии и мелодрамы при многочисленных сценах насилия и жестокости.
Сэмпл: http://multi-up.com/1208458
Качество видео: DVDRip (Источник: Torrentc - DVD5)
Формат файла: AVI
Видео: XviD 73, 672x304, (2,02:1), 25,000 fps, 1916 Кбит/с, 8 бит
Аудио: Русский (АС3, 2 ch (Front: L R), 48,0 KHz, 192 Kbps)

MediaInfo

ОбщееПолное имя : D:\Видеофильмы\В и д е о\Солдат-якудза бунтарь в армии (боевик, военный 1972 год).aviФормат файла : AVIФормат файла/Информация : Audio Video InterleaveРазмер файла : 1,37 ГбайтПродолжительность : 1 ч. 32 м.Общий поток : 2118 Кбит/секПрограмма кодирования : VirtualDubMod 1.5.10.3 | www.virtualdub-fr.org || (build 2550/release)Библиотека кодирования : VirtualDubMod build 2550/release
ВидеоИдентификатор : 0Формат файла : MPEG-4 VisualПрофиль формата : Advanced Simple@L5Параметр BVOP формата : 2Параметр QPel формата : НетПараметр GMC формата : Без точки переходаПараметр матрицы формата : ВыборочнаяИдентификатор кодека : XVIDИдентификатор кодека/Подсказка : XviDПродолжительность : 1 ч. 32 м.Битрейт : 1916 Кбит/секШирина : 672 пикселяВысота : 304 пикселяСоотношение сторон : 2,2:1Частота кадров : 25,000 кадров/секЦветовое пространство : YUVСубдискретизация насыщенности : 4:2:0Битовая глубина : 8 битТип развёртки : ПрогрессивнаяМетод сжатия : С потерямиБит/(Пиксели*Кадры) : 0.375Размер потока : 1,24 Гбайт (90%)Библиотека кодирования : XviD 73
АудиоИдентификатор : 1Формат файла : AC-3Формат файла/Информация : Audio Coding 3Расширение режима : CM (complete main)Параметр Endianness формата : BigИдентификатор кодека : 2000Продолжительность : 1 ч. 32 м.Вид битрейта : ПостоянныйБитрейт : 192 Кбит/секКаналы : 2 каналаРасположение каналов : Front: L RЧастота : 48,0 КГцЧастота кадров : 31,250 кадров/сек (1536 spf)Метод сжатия : С потерямиРазмер потока : 127 Мбайт (9%)Выравнивание : Разделение по промежуткамПродолжительность промежутка : 40 мс. (1,00 видеокадр)Время предзагрузки промежутка : 500 мс.

Скриншоты



[torrentc.info]_t_5611359.torrent
Торрент: Зарегистрирован ·  [ 2018-09-09 17:00 ] ·  1b67a190bd027df94069c5d1013a21f11fdc8401

14 KB

Статус: проверено
Скачан: 0 раз
Размер: 1.37 GB
Оценка: 
(Голосов: 0)
Сказали спасибо: 0  Спасибо
Похожие темы
[Профиль]    [ЛС]
Показать сообщения:    
Ответить на тему

Текущее время: Сегодня 16:09

Часовой пояс: GMT + 7



Вы не можете начинать темы
Вы не можете отвечать на сообщения
Вы не можете редактировать свои сообщения
Вы не можете удалять свои сообщения
Вы не можете голосовать в опросах
Вы не можете прикреплять файлы к сообщениям
Вы можете скачивать файлы