Артефакт / Wishcraft (Дэнни Грейвз / Danny Graves, Ричард Уэнк / Richard Wenk) [2002, США, Ужасы, DVDRip-AVC] DVO (Екатеринбург Арт)

Ответить на тему
Статистика раздачи [Обновить пиров]
Размер:  1.09 GB   |    Зарегистрирован:  2 месяца 7 дней   |    Скачан:  0 раз

Полного источника не было: Никогда

 
   
 
 
 
Автор Сообщение

torrentc.info

Создавать темы 09-Сен-2018 11:49

[Цитировать]

Артефакт / Wishcraft
Страна: США
Жанр: Ужасы
Год выхода: 2002
Продолжительность: 01:42:09
Перевод: Профессиональный (двухголосый закадровый) Екатеринбург Арт
Субтитры: нет
Режиссер: Дэнни Грейвз / Danny Graves, Ричард Уэнк / Richard Wenk
В ролях: Майкл Уэстон
Александра Холден
Хантли Риттер
Остин Пендлтон
А.Дж. Бакли
Мит Лоаф
Грегори Кук
Сэм МакМюррей
Эллис Бисли
Скотт Кодилл
Описание: Совершенно неожиданно для себя старшеклассник Бретт получает по почте странный артефакт, дающий ему возможность исполнить три любых желания. Бретт немедленно «влюбляет в себя» Саманту, самую красивую девушку в школе.
И практически одновременно в школе начинают происходить страшные и загадочные события: один за другим самые популярные ученики и ученицы становятся жертвами невидимого ночного убийцы.
Бретт задается вопросом: есть ли связь между этими жестокими убийствами и его новообретенной силой? Кто станет новой жертвой таинственного убийцы? И может быть, чтобы защитить любимую девушку, он должен «подставиться» сам?
Доп. информация: Звуковая дорожка снята и синхронизирована мною с VHS
Видеоряд найден в сети
Сэмпл: https://yadi.sk/i/zDnqfuGE_zDP-Q
Качество видео: DVDRip-AVC
Формат файла: AVI
Видео: 704x384, 23.976 fps ,AVC, 1 337 Kbps
Аудио: AC3 , 48 kHz , 192.00 kbps avg , 2/0 (L,R) ch

MediaInfo

Complete name Артефакт 2002 (Екатеринбург Арт).mkvFormat : MatroskaFormat version : Version 2File size : 1.09 GiBDuration : 1h 42mnOverall bit rate : 1 531 KbpsEncoded date : UTC 2018-09-04 16:47:25Writing application : mkvmerge v3.3.0 ('Language') built on Mar 24 2010 14:59:24Writing library : libebml v0.8.0 + libmatroska v0.9.0
VideoID : 1Format : AVCFormat/Info : Advanced Video CodecFormat profile : High@L4.1Format settings, CABAC : YesFormat settings, ReFrames : 4 framesCodec ID : V_MPEG4/ISO/AVCDuration : 1h 42mnBit rate : 1 337 KbpsWidth : 704 pixelsHeight : 384 pixelsDisplay aspect ratio : 1.85:1Frame rate mode : ConstantFrame rate : 23.976 (24000/1001) fpsColor space : YUVChroma subsampling : 4:2:0Bit depth : 8 bitsScan type : ProgressiveBits/(Pixel*Frame) : 0.206Stream size : 956 MiB (85%)Writing library : x264 core 138 r2358 9e941d1Encoding settings : cabac=1 / ref=3 / deblock=1:0:0 / analyse=0x3:0x113 / me=umh / subme=6 / psy=1 / psy_rd=1.00:0.00 / mixed_ref=1 / me_range=12 / chroma_me=1 / trellis=2 / 8x8dct=1 / cqm=0 / deadzone=21,11 / fast_pskip=1 / chroma_qp_offset=-2 / threads=6 / lookahead_threads=1 / sliced_threads=0 / nr=0 / decimate=1 / interlaced=0 / bluray_compat=0 / constrained_intra=0 / bframes=3 / b_pyramid=2 / b_adapt=2 / b_bias=0 / direct=3 / weightb=1 / open_gop=0 / weightp=2 / keyint=240 / keyint_min=23 / scenecut=40 / intra_refresh=0 / rc_lookahead=40 / rc=2pass / mbtree=1 / bitrate=1337 / ratetol=1.0 / qcomp=0.50 / qpmin=10 / qpmax=51 / qpstep=4 / cplxblur=20.0 / qblur=0.5 / vbv_maxrate=24000 / vbv_bufsize=24000 / nal_hrd=none / ip_ratio=1.10 / aq=1:1.00Default : NoForced : No
AudioID : 2Format : AC-3Format/Info : Audio Coding 3Mode extension : CM (complete main)Format settings, Endianness : BigCodec ID : A_AC3Duration : 1h 42mnBit rate mode : ConstantBit rate : 192 KbpsChannel(s) : 2 channelsChannel positions : Front: L RSampling rate : 48.0 KHzFrame rate : 31.250 fps (1536 spf)Compression mode : LossyStream size : 140 MiB (13%)Default : YesForced : No

Скриншоты



[torrentc.info]_t_5609487.torrent
Торрент: Зарегистрирован ·  [ 2018-09-09 11:49 ] ·  b5b0e7a22d9aac210ff1f2d32841cbd20318ab77

11 KB

Статус: проверено
Скачан: 0 раз
Размер: 1.09 GB
Оценка: 
(Голосов: 0)
Сказали спасибо: 0  Спасибо
Похожие темы
[Профиль]    [ЛС]
Показать сообщения:    
Ответить на тему

Текущее время: Сегодня 12:33

Часовой пояс: GMT + 7



Вы не можете начинать темы
Вы не можете отвечать на сообщения
Вы не можете редактировать свои сообщения
Вы не можете удалять свои сообщения
Вы не можете голосовать в опросах
Вы не можете прикреплять файлы к сообщениям
Вы можете скачивать файлы