Гинтама / Gintama ( Фукуда Юити / Fukuda Yuichi) [2017, Япония, фантастика, комедия, боевик, приключения, лайв-экшн, драма, HDRip-AVC] DVO + Original Jap + Sub Rus

Ответить на тему
Статистика раздачи [Обновить пиров]
Размер:  2.18 GB   |    Зарегистрирован:  3 месяца 7 дней   |    Скачан:  0 раз
Сидеров:  4  [  0 KB/s  ]   Личеров:  4  [  0 KB/s  ]   Подробная статистика скачивающих
 
   
 
 
 
Автор Сообщение

torrentc.info

Создавать темы 08-Сен-2018 17:58

[Цитировать]

Гинтама / Gintama
Год выхода: 2017
Страна: Япония
Жанр: фантастика, комедия, боевик, приключения, лайв-экшн, драма
Продолжительность: 02:11:06
Перевод: Любительский (двухголосый закадровый)
Субтитры: русские
Оригинальная аудиодорожка: Японский
Режиссер: Фукуда Юити / Fukuda Yuichi
В ролях: Накамура Канкуро, Нагасава Масами, Суда Масаки, Окада Масаки, Огури Шун, Хасимото Канна, Хаями Акари, Муро Цуёси, Ягира Юя, Ёсидзава Рё, Домото Цуёши
Описание: В середине девятнадцатого века состоялся первый контакт с пришельцами - в Японии приземлились чёрные корабли инопланетян аманто. Они прибыли на Землю с целью её захвата. Мечи самураев и ружья асигару оказались бессильны против технологий пришельцев, и сёгунат подчинился власти аманто. Сопротивляется власти захватчиков лишь патриотически настроенная группировка Дзёй. Когда-то Дзёй стояла во главе национального движения, однако теперь она переродилсь в террористическую организацию, чьи члены активно преследуются сёгунатом и Синсэнгуми.
Гинтоки Саката, один из бывших лидеров Дзёй, а ныне просто мастер на все руки в новом Эдо, периодически сталкивается с Синсэнгуми, пиратами Харусамэ и членами Дзёй, чьим нынешним лидерам не даёт покоя его предательство. Вместе со своими спутниками Симпати Симурой и Кагурой он не раз попадает в опасные ситуации, из которых нередко выкручивается с помощью друзей и изворотливости.
На основе одноименной манги Сорати Хидэаки.
: и Dreamy Sleep
Доп. информация:Перевод осуществляла команда фансаб-группы "Kotodama | 言魂 | Soul of the Words"
Перевод с яп., тайминг: Devilish
Редактура: protuberanzen
Оформление: sinner
Особая благодарность: Saori
Озвучивание: Ворон и Dreamy Sleep
Смотреть обязательно с форсированными субтитрами на надписи!
Прежде чем качать видео и комментировать, скачайте сэмпл и послушайте!

Качество видео: HDRip-AVC - Сэмпл
Источник: Torrentc: Gintama.2017.720p.BDRip.x264.Rus.Eng.Subs
Формат файла: MKV
Видео: 720x400 (16:9), 23,976 fps, x264 ~1479 kbps avg, 0.214 bit/pixel
Аудио: 48 kHz, AC3 Dolby Digital, 3/2 (L,C,R,l,r) + LFE ch, ~448 kbps (Русский)
Аудио 2: 48 kHz, AC3 Dolby Digital, 3/2 (L,C,R,l,r) + LFE ch, ~448 kbps (Японский)
Формат файла субтитров: [форсированный(надписи) / полные]softsub (ass)

отчет MediaInfo

Формат файла : Matroska
Версия формата : Version 4
Размер файла : 2,18 Гбайт
Продолжительность : 2 ч. 11 м.
Общий поток : 2378 Кбит/сек
Дата кодирования : UTC 2018-09-03 16:42:55
Программа кодирования : mkvmerge v8.2.0 ('World of Adventure') 32bit
Библиотека кодирования : libebml v1.3.1 + libmatroska v1.4.2
Attachments : ACMEBold.ttf / ACMENorm.TTF / Bosk.ttf / DearType - Lifehack Basic.otf / DS Goose.ttf / GUERRILLA-Normal.otf / Jazz_Ball_Bold.ttf / Jazz_Ball_Regular.ttf / MANGATEMPLE_0.ttf / PresentScript-Cyrillic.Ttf / stylo-bold-72088.ttf
Видео
Идентификатор : 1
Формат файла : AVC
Формат файла/Информация : Advanced Video Codec
Профиль формата : High@L4.1
Настройки формата : CABAC / 10 Ref Frames
Параметр CABAC формата : Да
Параметр RefFrames формата : 10 кадров
Идентификатор кодека : V_MPEG4/ISO/AVC
Продолжительность : 2 ч. 11 м.
Битрейт : 1479 Кбит/сек
Ширина : 720 пикселей
Высота : 400 пикселей
Соотношение сторон : 16:9
Режим частоты кадров : Постоянный
Частота кадров : 23,976 (24000/1001) кадра/сек
Цветовое пространство : YUV
Субдискретизация насыщенности : 4:2:0
Битовая глубина : 8 бит
Тип развёртки : Прогрессивная
Бит/(Пиксели*Кадры) : 0.214
Размер потока : 1,35 Гбайт (62%)
Библиотека кодирования : x264 core 148 r2638 7599210
Настройки программы : cabac=1 / ref=10 / deblock=1:-2:-1 / analyse=0x3:0x133 / me=umh / subme=10 / psy=1 / psy_rd=1.00:0.00 / mixed_ref=1 / me_range=24 / chroma_me=1 / trellis=2 / 8x8dct=1 / cqm=0 / deadzone=21,11 / fast_pskip=0 / chroma_qp_offset=-2 / threads=6 / lookahead_threads=1 / sliced_threads=0 / nr=0 / decimate=0 / interlaced=0 / bluray_compat=0 / constrained_intra=0 / bframes=10 / b_pyramid=2 / b_adapt=2 / b_bias=0 / direct=3 / weightb=1 / open_gop=1 / weightp=2 / keyint=240 / keyint_min=23 / scenecut=40 / intra_refresh=0 / rc_lookahead=60 / rc=2pass / mbtree=0 / bitrate=1479 / ratetol=1.0 / qcomp=0.70 / qpmin=10 / qpmax=51 / qpstep=4 / cplxblur=20.0 / qblur=0.5 / vbv_maxrate=62500 / vbv_bufsize=78125 / nal_hrd=none / filler=0 / ip_ratio=1.40 / pb_ratio=1.30 / aq=1:1.00
Язык : English
Default : Да
Forced : Нет
Цветовой диапазон : Limited
Коэффициенты матрицы : BT.709
Аудио #1
Идентификатор : 2
Формат файла : AC-3
Формат файла/Информация : Audio Coding 3
Коммерческое название : Dolby Digital
Идентификатор кодека : A_AC3
Продолжительность : 2 ч. 11 м.
Вид битрейта : Постоянный
Битрейт : 448 Кбит/сек
Каналы : 6 каналов
Channel layout : L R C LFE Ls Rs
Частота : 48,0 КГц
Частота кадров : 31,250 кадров/сек (1536 SPF)
Битовая глубина : 16 бит
Метод сжатия : С потерями
Размер потока : 420 Мбайт (19%)
Заголовок : Ворон и Dreamy Sleep
Язык : Russian
ServiceKind/String : Complete Main
Default : Да
Forced : Нет
Аудио #2
Идентификатор : 3
Формат файла : AC-3
Формат файла/Информация : Audio Coding 3
Коммерческое название : Dolby Digital
Идентификатор кодека : A_AC3
Продолжительность : 2 ч. 11 м.
Вид битрейта : Постоянный
Битрейт : 448 Кбит/сек
Каналы : 6 каналов
Channel layout : L R C LFE Ls Rs
Частота : 48,0 КГц
Частота кадров : 31,250 кадров/сек (1536 SPF)
Битовая глубина : 16 бит
Метод сжатия : С потерями
Размер потока : 420 Мбайт (19%)
Заголовок : Original
Язык : Chinese
ServiceKind/String : Complete Main
Default : Нет
Forced : Нет
Текст #1
Идентификатор : 4
Формат файла : ASS
Идентификатор кодека : S_TEXT/ASS
Идентификатор кодека/Информация : Advanced Sub Station Alpha
Продолжительность : 2 ч. 5 м.
Битрейт : 26 бит/сек
ElementCount : 252
Метод сжатия : Без потерь
Размер потока : 24,3 Кбайт (0%)
Заголовок : форсированный(надписи)
Язык : Russian
Default : Да
Forced : Да
Текст #2
Идентификатор : 5
Формат файла : ASS
Идентификатор кодека : S_TEXT/ASS
Идентификатор кодека/Информация : Advanced Sub Station Alpha
Продолжительность : 2 ч. 10 м.
Битрейт : 163 бит/сек
ElementCount : 2039
Метод сжатия : Без потерь
Размер потока : 156 Кбайт (0%)
Заголовок : Перевод - [фансаб-группы Kotodama | 言魂 | Soul of the Words]
Язык : Russian
Default : Нет
Forced : Нет

Пример Субтитров

Dialogue: 0,0:01:03.06,0:01:05.66,Main,,0,0,0,,но потерпели сокрушительное поражение.
Dialogue: 0,0:01:06.50,0:01:11.20,Main,,0,0,0,,Опасаясь новых восстаний,\N Аманто наложили запрет на ношение мечей.
Dialogue: 0,0:01:11.77,0:01:14.93,Main,,0,0,0,,А положение самураев становилось\N всё более плачевным.
Dialogue: 0,0:01:24.32,0:01:26.84,Main,,0,0,0,,И откуда у тебя только руки растут!
Dialogue: 0,0:01:27.22,0:01:32.12,Main,,0,0,0,,Знаешь, с кассой даже шимпанзе и амёба влёгкую управятся!
Dialogue: 0,0:01:32.36,0:01:33.41,Main,,0,0,0,,Прошу прощения.
Dialogue: 0,0:01:33.41,0:01:35.63,Main,,0,0,0,,Я обучался лишь искусству кендзюцу.
Dialogue: 0,0:01:36.23,0:01:37.00,Main,,0,0,0,,Дебил!
Dialogue: 0,0:01:39.93,0:01:45.80,Main,,0,0,0,,Теперь Эдо от ваших железяк\N нет никакущего толку!
Dialogue: 0,0:01:46.04,0:01:50.11,Main,,0,0,0,,А самураи тем более – дерьмо дерьмом!
Dialogue: 0,0:01:50.11,0:01:54.67,Internal,,0,0,0,,Лишённые мечей и положения в обществе,\N самураи отринули всё, даже свою гордость.
Dialogue: 0,0:01:55.35,0:01:56.60,Main,,0,0,0,,Эй, папаша!
Dialogue: 0,0:01:56.90,0:01:59.28,Main,,0,0,0,,Забей на кассу, лучше молока тащи.
Dialogue: 0,0:02:00.19,0:02:02.08,Main,,0,0,0,,Конечно, с удовольствием!
Dialogue: 0,0:02:02.10,0:02:03.29,Main,,0,0,0,,Эй, слышь!
Dialogue: 0,0:02:03.29,0:02:06.25,Main,,0,0,0,,Пошевеливайся и отнеси господам молока.
Dialogue: 0,0:02:07.00,0:02:07.96,Main,,0,0,0,,Слушаюсь.
Dialogue: 0,0:02:15.37,0:02:20.47,Main,,0,0,0,,Ой-ой, ваш пацан не то что с кассой – с подносом-то управиться не может.
Dialogue: 0,0:02:20.77,0:02:24.04,Main,,0,0,0,,Смиренно прошу прощения!
Dialogue: 0,0:02:24.04,0:02:27.13,Main,,0,0,0,,Теперь мой превосходный мундир \Nбезнадёжно испорчен.
Dialogue: 0,0:02:27.58,0:02:31.87,Main,,0,0,0,,Да ты хоть представляешь,\N как теперь от него будет вонять?!
Dialogue: 0,0:02:33.22,0:02:34.31,Main,,0,0,0,,Прошу прощения.
Dialogue: 0,0:02:34.71,0:02:35.75,Main,,0,0,0,,Извините.
Dialogue: 0,0:02:35.85,0:02:37.88,Main,,0,0,0,,А ну убрал от меня эту грязную рвань!
Dialogue: 0,0:02:40.12,0:02:42.36,Main,,0,0,0,,Извинись! Извинись сейчас же!
Dialogue: 0,0:02:42.53,0:02:44.96,Main,,0,0,0,,Нет, не только самураи лишились гордости.
Dialogue: 0,0:02:45.06,0:02:48.35,Main,,0,0,0,,Полагаю, это справедливо \Nдля всех жителей нашей страны...
Dialogue: 0,0:02:48.35,0:02:49.33,Main,,0,0,0,,Эй!
Dialogue: 0,0:03:02.21,0:03:03.51,Main,,0,0,0,,Ублюдок, ты ещё кто такой?!
Субтитры выложены с разрешения фансаб-группы "Kotodama | 言魂 | Soul of the Words"


[torrentc.info]_t_5609110.torrent
Торрент: Зарегистрирован ·  [ 2018-09-08 17:58 ] ·  cb9822f010a9f8efbe846e68a108a974998e7a80

11 KB

Статус: проверено
Скачан: 0 раз
Размер: 2.18 GB
Оценка: 
(Голосов: 0)
Сказали спасибо: 0  Спасибо
Похожие темы
[Профиль]    [ЛС]
Показать сообщения:    
Ответить на тему

Текущее время: Сегодня 23:39

Часовой пояс: GMT + 7



Вы не можете начинать темы
Вы не можете отвечать на сообщения
Вы не можете редактировать свои сообщения
Вы не можете удалять свои сообщения
Вы не можете голосовать в опросах
Вы не можете прикреплять файлы к сообщениям
Вы можете скачивать файлы