Пылающий / Burning (Ли Чан Дон / Lee Chang Dong) [2018, Южная Корея, детектив, триллер, драма, WEB-DLRip] Dub (iTunes)

Ответить на тему
Статистика раздачи [Обновить пиров]
Размер:  2.18 GB   |    Зарегистрирован:  1 месяц 15 дней   |    Скачан:  0 раз

Полного источника не было: Никогда

 
   
 
 
 
Автор Сообщение

torrentc.info

Создавать темы 05-Сен-2018 14:44

[Цитировать]

Пылающий / Burning
[img=right]https://i5.imageban.ru/out/2018/09/04/1efd5c5147cde...3a31fa.jpg[/img]
Страна: Южная Корея
Жанр: детектив, триллер, драма
Год выхода: 2018
Продолжительность: 02:28:06-Перевод: Профессиональный (дублированный) | iTunes
Субтитры: нет
Оригинальная аудиодорожка: нет-Режиссер: Ли Чан Дон / Lee Chang Dong-В ролях: А Ин Ю, Стивен Юн, Чон Со Чон, Су Кён Ким, Сын Хо Чхве, Бок Ги Мин, Хэ Ра Пан, Бон Рён Ли-Описание: Молодой писатель Джонсу встречает старую знакомую, с которой они вместе росли. В ее жизни многое изменилось, и теперь перед ее очарованием сложно устоять. В поисках себя девушка отправляется в Африку и возвращается оттуда с новым другом по имени Бен. Бен — современный Гэтсби, у него нет изъянов, зато есть необычное хобби, узнав о котором, Джонсу лишается покоя.-Качество видео: WEB-DLRip
Формат файла: AVI
Видео: 720x304 (2.37:1), 23.976 fps, XviD build 73 ~1719 kbps avg, 0.33 bit/pixel
Аудио: 48 kHz, AC3 Dolby Digital, 3/2 (L,C,R,l,r) + LFE ch, ~384 kbps-

Сэмпл-

MediaInfo

Формат файла                                   : AVI
Формат файла/Информация                        : Audio Video Interleave
Профиль формата                          : OpenDML
Размер файла                             : 2,18 Гбайт
Продолжительность                        : 2 ч. 28 м.
Общий поток                              : 2110 Кбит/сек
Программа кодирования                    : VirtualDubMod 1.5.10.3 | www.virtualdub-fr.org || (build 2550/release)
Библиотека кодирования                   : VirtualDubMod build 2550/release
Видео
Идентификатор                            : 0
Формат файла                                   : MPEG-4 Visual
Профиль формата                          : Advanced Simple@L5
Настройки формата                        : BVOP1 / Custom Matrix
Параметр BVOP формата                    : 1
Параметр QPel формата                    : Нет
Параметр GMC формата                     : Без точки перехода
Параметр матрицы формата                 : Выборочная
Идентификатор кодека                     : XVID
Идентификатор кодека/Подсказка           : XviD
Продолжительность                        : 2 ч. 28 м.
Битрейт                                  : 1714 Кбит/сек
Ширина                                   : 720 пикселей
Высота                                   : 304 пикселя
Соотношение сторон                       : 2,35:1
Частота кадров                           : 23,976 (24000/1001) кадра/сек
Цветовое пространство                    : YUV
Субдискретизация насыщенности            : 4:2:0
Битовая глубина                          : 8 бит
Тип развёртки                            : Прогрессивная
Метод сжатия                             : С потерями
Бит/(Пиксели*Кадры)                      : 0.327
Размер потока                            : 1,77 Гбайт (81%)
Библиотека кодирования                   : XviD 73
Аудио
Идентификатор                            : 1
Формат файла                                   : AC-3
Формат файла/Информация                        : Audio Coding 3
Коммерческое название                    : Dolby Digital
Идентификатор кодека                     : 2000
Продолжительность                        : 2 ч. 28 м.
Вид битрейта                             : Постоянный
Битрейт                                  : 384 Кбит/сек
Каналы                                   : 6 каналов
Channel layout                           : L R C LFE Ls Rs
Частота                                  : 48,0 КГц
Частота кадров                           : 31,250 кадров/сек (1536 SPF)
Битовая глубина                          : 16 бит
Метод сжатия                             : С потерями
Размер потока                            : 407 Мбайт (18%)
Выравнивание                             : Разделение по промежуткам
Продолжительность промежутка             : 42  мс. (1,00 видеокадр)
Время предзагрузки промежутка            : 500  мс.
ServiceKind/String                       : Complete Main


[torrentc.info]_t_5609573.torrent
Торрент: Зарегистрирован ·  [ 2018-09-05 14:44 ] ·  1837ba87f33252581b18351c5a5f5b3f1671475f

11 KB

Статус: проверено
Скачан: 0 раз
Размер: 2.18 GB
Оценка: 
(Голосов: 0)
Сказали спасибо: 0  Спасибо
Похожие темы
[Профиль]    [ЛС]
Показать сообщения:    
Ответить на тему

Текущее время: Сегодня 19:55

Часовой пояс: GMT + 7



Вы не можете начинать темы
Вы не можете отвечать на сообщения
Вы не можете редактировать свои сообщения
Вы не можете удалять свои сообщения
Вы не можете голосовать в опросах
Вы не можете прикреплять файлы к сообщениям
Вы можете скачивать файлы