Соучастники / Choke (Джон Сьёрген / John Sjogren) [2001, США, триллер, DVDRip] DVO (Екатеринбург Арт)

Ответить на тему
Статистика раздачи [Обновить пиров]
Размер:  1.45 GB   |    Зарегистрирован:  3 месяца 7 дней   |    Скачан:  0 раз

Полного источника не было: Никогда

 
   
 
 
 
Автор Сообщение

torrentc.info

Создавать темы 04-Сен-2018 12:14

[Цитировать]

Соучастники / Choke
Год выхода: 2001
Страна: США
Жанр: триллер
Продолжительность: 01:28:51
Перевод: Профессиональный (двухголосый закадровый) - Екатеринбург Арт
Субтитры: нет
Режиссер: Джон Сьёрген / John Sjogren
В ролях: Деннис Хоппер / Henry Clark, Майкл Мэдсен / Will, Челси Рейнольдс / Gena, Паула Стивенс / Liz, Рой Тейт / Ron Sloan, Микеле Витторио Герси / Henry's Father, Кен Вако / Will's Father, Джой Грэй / Will's Mother, Мишель Рене Джордан / Henry's Mother-Мировая премьера: 14 августа 2001-Описание: Генри — скромный и законопослушный бизнесмен. Но когда его дочь оказывается замешанной в разбойном нападении и убийстве, Генри начинают шантажировать. В обмен на сохранение тайны ему предлагают поучаствовать в крупной финансовой махинации. Бурное обсуждение этого предложения, «от которого невозможно отказаться», заканчивается убийством шантажиста. А избавиться от трупа Генри помогает «совершенно случайно» оказавшийся рядом довольно странный субъект, назвавшийся Уиллом. Затем дело приобретает еще более пугающий оборот: Уилл оказывается серийным убийцей, который задумал обзавестись алиби с помощью Генри, посадив его «на крючок». Теперь им предстоит сыграть в смертельно опасную игру, ставка в которой жизнь и самого Генри, и его дочери…-Огромная благодарность:
[url=profile.php?mode=viewprofile&u=760904]RoxMarty[/url] - личная оцифровка перевода со своей лицензионной видеокассеты от видео-компании Екатеринбург Арт.
[url=profile.php?mode=viewprofile&u=20398762]JUSTKANT[/url] - видеоряд из СГ и синхронизация перевода.-Рейтинг
[img]https://rating.kinopoisk.ru/11509.gif[/img]
MPAA: R - Лицам до 17-ти лет обязательно присутствие взрослого.-Качество видео: DVDRip
Формат файла: AVI -> //Сэмпл//
Видео: XviD, 704x528 (4:3), 25.000 fps, 2142 kbps
Аудио:
1 - 48 khz, AC3 Dolby Digital, 2/0 ch, ~192 kbps [Екатеринбург Арт] VHSRip

MediaInfo

GeneralComplete name : D:\ТОРРЕНТЫ (Фильмы для рутрекера)\Соучастники (Екатеринбург Арт).aviFormat : AVIFormat/Info : Audio Video InterleaveFile size : 1.45 GiBDuration : 1 h 28 minOverall bit rate : 2 343 kb/sMovie name : Соучастники / Choke (Екатеринбург Арт)Director : JUSTKANTWriting application : VirtualDubMod 1.5.10.3 | www.virtualdub-fr.org || (build 2550/release)Copyright : На русский язык фильм озвучен по заказу компании "Екатеринбург Арт"Comment : Качество звука: VHSRip (RoxMarty)
VideoID : 0Format : MPEG-4 VisualFormat profile : Advanced Simple@L5Format settings : BVOP1 / Custom MatrixFormat settings, BVOP : 1Format settings, QPel : NoFormat settings, GMC : No warppointsFormat settings, Matrix : CustomCodec ID : XVIDCodec ID/Hint : XviDDuration : 1 h 28 minBit rate : 2 142 kb/sWidth : 704 pixelsHeight : 528 pixelsDisplay aspect ratio : 4:3Frame rate : 25.000 FPSColor space : YUVChroma subsampling : 4:2:0Bit depth : 8 bitsScan type : ProgressiveCompression mode : LossyBits/(Pixel*Frame) : 0.230Stream size : 1.33 GiB (91%)Writing library : XviD 1.2.1 (UTC 2008-12-04)
AudioID : 1Format : AC-3Format/Info : Audio Coding 3Codec ID : 2000Duration : 1 h 28 minBit rate mode : ConstantBit rate : 192 kb/sChannel(s) : 2 channelsChannel positions : Front: L RSampling rate : 48.0 kHzFrame rate : 31.250 FPS (1536 SPF)Bit depth : 16 bitsCompression mode : LossyStream size : 122 MiB (8%)Alignment : Split accross interleavesInterleave, duration : 40 ms (1.00 video frame)Interleave, preload duratio : 500 msTitle : ЕКАТЕРИНБУРГ АРТ: Виктор Бохон и Людмила ГниловаService kind : Complete Main

Скриншот c названием фильма

Скриншоты

РАЗДАЮ ДО ЗАВТРАШНЕГО ДНЯ, ПОТОМ У СЕБЯ УДАЛЯЮ.
ЕСЛИ НИКОГО НЕТ НА РАЗДАЧЕ, ПИШИТЕ МНЕ В ЛС, ДАМ ССЫЛКУ, ГДЕ МОЖНО СКАЧАТЬ БЕЗ ТОРРЕНТА, НО ПРИ УСЛОВИИ, ЧТО ВЫ БУДЕТЕ ЕГО РАЗДАВАТЬ В МОЕЙ РАЗДАЧЕ!


[torrentc.info]_t_5609143.torrent
Торрент: Зарегистрирован ·  [ 2018-09-04 12:14 ] ·  5e2e46d67d4d1b565fd5fb1754a59953867858cb

15 KB

Статус: проверено
Скачан: 0 раз
Размер: 1.45 GB
Оценка: 
(Голосов: 0)
Сказали спасибо: 0  Спасибо
Похожие темы
[Профиль]    [ЛС]
Показать сообщения:    
Ответить на тему

Текущее время: Сегодня 16:10

Часовой пояс: GMT + 7



Вы не можете начинать темы
Вы не можете отвечать на сообщения
Вы не можете редактировать свои сообщения
Вы не можете удалять свои сообщения
Вы не можете голосовать в опросах
Вы не можете прикреплять файлы к сообщениям
Вы можете скачивать файлы