Идентификация Борна / The Bourne Identity (Даг Лайман / Doug Liman) [2002, США, Германия, Чехия, боевик, триллер, детектив, WEB-DLRip-AVC] [Open Matte] DUB + DVO (SDI-Media, Гланц и Королёва) + AVO (Гаврилов, Живов) + Sub Rus Eng + Original Eng

Ответить на тему
Статистика раздачи [Обновить пиров]
Размер:  3.7 GB   |    Зарегистрирован:  3 месяца 14 дней   |    Скачан:  0 раз

Полного источника не было: Никогда

 
   
 
 
 
Автор Сообщение

torrentc.info

Создавать темы 03-Сен-2018 01:57

[Цитировать]

Идентификация Борна / The Bourne Identity / Open Matte
-Часть I | Часть II-Страна: США, Германия, Чехия
Жанр: боевик, триллер, приключения, детектив
Год выхода: 2002
Продолжительность: 01:58:17
Перевод: Профессиональный (дублированный)
Перевод 2: Профессиональный (двухголосый закадровый) SDI-Media
Перевод 3: Профессиональный (двухголосый закадровый) Гланц и Королёва
Перевод 4: Авторский (одноголосый закадровый) Ю.Живов
Перевод 5: Авторский (одноголосый закадровый) А.Гаврилов
Субтитры: русские, английские
Оригинальная аудиодорожка: английский
Режиссер: Даг Лайман/ Doug Liman
В ролях: Мэтт Дэймон, Франка Потенте, Крис Купер, Клайв Оуэн, Брайан Кокс, Эйдвэйл Акиноуйе-Агбайе, Гэбриэл Манн, Уолт Гоггинс, Джош Хэмилтон, Джулия Стайлз, Орсо Мария Геррини, Тим Даттон
Описание: Команде итальянских рыбаков "повезло" с уловом. Вместо рыбы они выудили молодого, хорошо сложенного мужчину с двумя страшными огнестрельными ранениями и полной потерей памяти. Мужчина чудом выжил и обнаружил, что зовут его - Джейсон Борн. Но почему-то этот самый Борн очень не нравится большому количеству мрачных, но хорошо подготовленных мужчин, которые настойчиво пытаются его убить. У Джейсона остается очень мало времени, чтобы узнать - кто он, и понять, почему за ним охотится зловещая компания душегубов-профессионалов. На пути разгадки тайны собственной личности Борн обнаруживает в себе множество невероятных талантов, в том числе и жуткий талант убивать...
Фильмы в Fullscreen (4:3) и Open Matte (16:9) форматах
Сэмпл: http://multi-up.com/1206403
Качество видео: WEB-DLRip-AVC Источник: Torrentc
Формат файла: MKV
Видео: MPEG-4 AVC/H.264 / 2180 kbps / 1088x612 / 23.976 fps
Аудио: DUB (Rus) / AC3 / 6 ch / 448 kbps / 48 kHz
Аудио 2: AVO Живов (Rus) / AC3 / 6 ch / 448 kbps / 48 kHz
Аудио 3: Original (Eng) / AC3 / 6 ch / 448 kbps / 48 kHz
Аудио 4: DVO SDI-MEDIA (Rus) / AC3 / 2 ch / 192 kbps / 48 kHz - отдельно
Аудио 5: DVO Гланц и Королёва (Rus) / AC3 / 6 ch / 384 kbps / 48 kHz - отдельно
Аудио 6: AVO Гаврилов (Rus) / AC3 / 6 ch / 384 kbps / 48 kHz - отдельно
Формат файла субтитров: softsub (SRT)
Доп. информация о субтитрах: русские (forced, full), английские (2x full)
#Сохранены оригинальные чаптеры как на Blu-ray

Log

x264 [info]: frame I:1107 Avg QP:17.83 size: 64720
x264 [info]: frame P:42986 Avg QP:21.56 size: 19495
x264 [info]: frame B:111792 Avg QP:23.21 size: 7418

MediaInfo

General
Unique ID : 192865745964141416883705426975264636222 (0x9118976F288B1F50B5F8C906628C7D3E)
Complete name : I:\torrents\Идентификация Борна (2002) WEB-DLRip-AVC [Open Matte]\Идентификация Борна (2002) WEB-DLRip-AVC [Open Matte].mkv
Format : Matroska
Format version : Version 2
File size : 2.91 GiB
Duration : 1 h 58 min
Overall bit rate : 3 523 kb/s
Movie name : Идентификация Борна / The Bourne Identity (2002) [Open Matte]
Encoded date : UTC 2018-08-06 22:20:43
Writing application : mkvmerge v5.5.0 ('Healer') built on Apr 24 2012 23:47:03
Writing library : libebml v1.2.3 + libmatroska v1.3.0
Cover : Yes
Attachments : cover.jpg
Video
ID : 1
Format : AVC
Format/Info : Advanced Video Codec
Format profile : High@L3.1
Format settings : CABAC / 8 Ref Frames
Format settings, CABAC : Yes
Format settings, ReFrames : 8 frames
Codec ID : V_MPEG4/ISO/AVC
Duration : 1 h 58 min
Bit rate : 2 180 kb/s
Width : 1 088 pixels
Height : 612 pixels
Display aspect ratio : 16:9
Frame rate mode : Constant
Frame rate : 23.976 (24000/1001) FPS
Color space : YUV
Chroma subsampling : 4:2:0
Bit depth : 8 bits
Scan type : Progressive
Bits/(Pixel*Frame) : 0.137
Stream size : 1.74 GiB (60%)
Title : WEB-DLRip (AVC) / MPEG-4 AVC/H.264 / 2180 kbps / 1088x612 / 23.976 fps
Writing library : x264 core 146 r2538 121396c
Encoding settings : cabac=1 / ref=8 / deblock=1:0:0 / analyse=0x3:0x113 / me=umh / subme=10 / psy=1 / psy_rd=1.00:0.00 / mixed_ref=1 / me_range=32 / chroma_me=1 / trellis=2 / 8x8dct=1 / cqm=0 / deadzone=21,11 / fast_pskip=0 / chroma_qp_offset=-2 / threads=6 / lookahead_threads=1 / sliced_threads=0 / nr=0 / decimate=1 / interlaced=0 / bluray_compat=0 / constrained_intra=0 / bframes=9 / b_pyramid=2 / b_adapt=2 / b_bias=0 / direct=3 / weightb=1 / open_gop=0 / weightp=2 / keyint=250 / keyint_min=23 / scenecut=40 / intra_refresh=0 / rc_lookahead=50 / rc=2pass / mbtree=1 / bitrate=2180 / ratetol=1.0 / qcomp=0.60 / qpmin=0 / qpmax=69 / qpstep=4 / cplxblur=20.0 / qblur=0.5 / vbv_maxrate=14000 / vbv_bufsize=14000 / nal_hrd=none / filler=0 / ip_ratio=1.40 / aq=1:1.00
Language : English
Default : Yes
Forced : Yes
Audio #1
ID : 2
Format : AC-3
Format/Info : Audio Coding 3
Codec ID : A_AC3
Duration : 1 h 58 min
Bit rate mode : Constant
Bit rate : 448 kb/s
Channel(s) : 6 channels
Channel positions : Front: L C R, Side: L R, LFE
Sampling rate : 48.0 kHz
Frame rate : 31.250 FPS (1536 SPF)
Bit depth : 16 bits
Compression mode : Lossy
Stream size : 379 MiB (13%)
Title : DUB (Rus) / AC3 / 6 ch / 448 kbps / 48 kHz
Language : Russian
Service kind : Complete Main
Default : Yes
Forced : Yes
Audio #2
ID : 3
Format : AC-3
Format/Info : Audio Coding 3
Codec ID : A_AC3
Duration : 1 h 58 min
Bit rate mode : Constant
Bit rate : 448 kb/s
Channel(s) : 6 channels
Channel positions : Front: L C R, Side: L R, LFE
Sampling rate : 48.0 kHz
Frame rate : 31.250 FPS (1536 SPF)
Bit depth : 16 bits
Compression mode : Lossy
Stream size : 379 MiB (13%)
Title : AVO Живов (Rus) / AC3 / 6 ch / 448 kbps / 48 kHz
Language : Russian
Service kind : Complete Main
Default : No
Forced : No
Audio #3
ID : 4
Format : AC-3
Format/Info : Audio Coding 3
Codec ID : A_AC3
Duration : 1 h 58 min
Bit rate mode : Constant
Bit rate : 448 kb/s
Channel(s) : 6 channels
Channel positions : Front: L C R, Side: L R, LFE
Sampling rate : 48.0 kHz
Frame rate : 31.250 FPS (1536 SPF)
Bit depth : 16 bits
Compression mode : Lossy
Stream size : 379 MiB (13%)
Title : Original (Eng) / AC3 / 6 ch / 448 kbps / 48 kHz
Language : English
Service kind : Complete Main
Default : No
Forced : No
Text #1
ID : 5
Format : UTF-8
Codec ID : S_TEXT/UTF8
Codec ID/Info : UTF-8 Plain Text
Title : Forced (Rus) / S_TEXT/UTF8
Language : Russian
Default : Yes
Forced : Yes
Text #2
ID : 6
Format : UTF-8
Codec ID : S_TEXT/UTF8
Codec ID/Info : UTF-8 Plain Text
Title : Full (Rus) / S_TEXT/UTF8
Language : Russian
Default : No
Forced : No
Text #3
ID : 7
Format : UTF-8
Codec ID : S_TEXT/UTF8
Codec ID/Info : UTF-8 Plain Text
Title : Full (Eng) / S_TEXT/UTF8
Language : English
Default : No
Forced : No
Text #4
ID : 8
Format : UTF-8
Codec ID : S_TEXT/UTF8
Codec ID/Info : UTF-8 Plain Text
Title : Full [SDH] (Eng) / S_TEXT/UTF8
Language : English
Default : No
Forced : No
Menu
00:00:00.000 : :Chapter 01
00:05:00.000 : :Chapter 02
00:10:00.000 : :Chapter 03
00:15:00.000 : :Chapter 04
00:20:00.000 : :Chapter 05
00:25:00.000 : :Chapter 06
00:30:00.000 : :Chapter 07
00:35:00.000 : :Chapter 08
00:40:00.000 : :Chapter 09
00:45:00.000 : :Chapter 10
00:50:00.000 : :Chapter 11
00:55:00.000 : :Chapter 12
01:00:00.000 : :Chapter 13
01:05:00.000 : :Chapter 14
01:10:00.000 : :Chapter 15
01:15:00.000 : :Chapter 16
01:20:00.000 : :Chapter 17
01:25:00.000 : :Chapter 18
01:30:00.000 : :Chapter 19
01:35:00.000 : :Chapter 20
01:40:00.000 : :Chapter 21
01:45:00.000 : :Chapter 22
01:50:00.000 : :Chapter 23
01:55:00.000 : :Chapter 24

Источник: Torrentc изданий

Scope (2.35:1) >>>>>>>>>>>>>>>>>>>>>>>>>>>>>>> Open Matte (16:9) >>>>>>>>>>>>>>>>>>>>>>>>>>>>>>> FullScreen (4:3)



Источник: Torrentc с другими Источник: Torrentcами

Данный релиз

HDTVRip 720p -> http://Torrentc/forum/viewtopic.php?t=71610

Скриншот c названием фильма

Скриншоты



[torrentc.info]_t_5601076.torrent
Торрент: Зарегистрирован ·  [ 2018-09-03 01:57 ] ·  5a5af70ace4d277dd035730197964ebfac690119

20 KB

Статус: проверено
Скачан: 0 раз
Размер: 3.7 GB
Оценка: 
(Голосов: 0)
Сказали спасибо: 0  Спасибо
Похожие темы
[Профиль]    [ЛС]
Показать сообщения:    
Ответить на тему

Текущее время: Сегодня 22:38

Часовой пояс: GMT + 7



Вы не можете начинать темы
Вы не можете отвечать на сообщения
Вы не можете редактировать свои сообщения
Вы не можете удалять свои сообщения
Вы не можете голосовать в опросах
Вы не можете прикреплять файлы к сообщениям
Вы можете скачивать файлы