Я и моя жена: 1778 историй / 1778 историй обо мне и моей жене / 1778 Stories of Me and My Wife / Boku to tsuma no 1778 no monogatari (Мамору Хоси / Mamoru Hoshi) [2011, Япония, Драма, DVDRip] Original + Sub Rus

Ответить на тему
Статистика раздачи [Обновить пиров]
Размер:  1.37 GB   |    Зарегистрирован:  3 месяца 14 дней   |    Скачан:  0 раз

Полного источника не было: Никогда

 
   
 
 
 
Автор Сообщение

torrentc.info

Создавать темы 28-Авг-2018 12:01

[Цитировать]

Я и моя жена: 1778 историй
1778 Stories of Me and My Wife
僕と妻の1778の物語

Страна: Япония
Жанр: Драма
Год выхода: 2011
Продолжительность: 02:20:05
Перевод: Субтитры (M. Ghast)
Субтитры: русские (.ass), английские (.srt) (софтсаб)
Оригинальная аудиодорожка: японская
Режиссер: Мамору Хоси / Mamoru Hoshi
В ролях: Цуёси Кусанаги, Юко Такэути, Сёскэ Танихара, Митико Кирасэ, Тай Кагэяма, Рэн Осуги и др.
Описание: В счастливую семейную жизнь инфантильного писателя-фантаста Сакутаро и доброй и заботливой Сэцуко вторгается беда: заболевает супруга. Чтобы хоть как-то поддержать жену, Саку решает каждый день писать для неё по одной смешной истории. Трогательная картина режиссёра Мамору Хоси не оставит равнодушными поклонников хороших японских драм. Готовьте носовые платки!
Сэмпл: http://multi-up.com/597539
Качество видео: DVDRip
Формат файла: AVI
Видео: Xvid 720x416 16:9 23.98fps 943Kbps
Аудио: Dolby AC3 48000Hz stereo 448Kbps

Ссылка на IMDb
Ссылка на КиноПоиск

MediaInfo

General
Complete name : F:\КИНО\日本映画\1778 MONOGATARI\1778 Stories of Me and My Wife Torrentc\1778.Stories.of.Me.and.My.Wife.2011.DVDRip.XviD.AC3-shinostarr.avi
Format : AVI
Format/Info : Audio Video Interleave
File size : 1.37 GiB
Duration : 2h 20mn
Overall bit rate : 1 398 Kbps
Writing application : VirtualDubMod 1.5.4.1 (build 2178/release)
Writing library : VirtualDubMod build 2178/release
Video
ID : 0
Format : MPEG-4 Visual
Format profile : Advanced Simple@L5
Format settings, BVOP : 1
Format settings, QPel : No
Format settings, GMC : No warppoints
Format settings, Matrix : Custom
Codec ID : XVID
Codec ID/Hint : XviD
Duration : 2h 20mn
Bit rate : 943 Kbps
Width : 720 pixels
Height : 416 pixels
Display aspect ratio : 16:9
Frame rate : 23.976 fps
Color space : YUV
Chroma subsampling : 4:2:0
Bit depth : 8 bits
Scan type : Progressive
Compression mode : Lossy
Bits/(Pixel*Frame) : 0.131
Stream size : 945 MiB (67%)
Writing library : XviD 64
Audio
ID : 1
Format : AC-3
Format/Info : Audio Coding 3
Format profile : Dolby Digital
Mode extension : CM (complete main)
Codec ID : 2000
Duration : 2h 20mn
Bit rate mode : Constant
Bit rate : 448 Kbps
Channel(s) : 2 channels
Channel positions : Front: L R
Sampling rate : 48.0 KHz
Bit depth : 16 bits
Compression mode : Lossy
Stream size : 449 MiB (32%)
Alignment : Split accross interleaves
Interleave, duration : 96 ms (2.30 video frames)
Interleave, preload duration : 96 ms
Language : Japanese

Скриншот c названием фильма



[torrentc.info]_t_3825588.torrent
Торрент: Зарегистрирован ·  [ 2018-08-28 12:01 ] ·  b4d5382bd1bf2d72e12f01cdb172083a33da8c72

14 KB

Статус: проверено
Скачан: 0 раз
Размер: 1.37 GB
Оценка: 
(Голосов: 0)
Сказали спасибо: 0  Спасибо
Похожие темы
[Профиль]    [ЛС]
Показать сообщения:    
Ответить на тему

Текущее время: Сегодня 16:47

Часовой пояс: GMT + 7



Вы не можете начинать темы
Вы не можете отвечать на сообщения
Вы не можете редактировать свои сообщения
Вы не можете удалять свои сообщения
Вы не можете голосовать в опросах
Вы не можете прикреплять файлы к сообщениям
Вы можете скачивать файлы