[TR24][OF] Simone Kopmajer - Spotlight On Jazz - 2018 (Vocal Jazz)

Ответить на тему
Статистика раздачи [Обновить пиров]
Размер:  1.7 GB   |    Зарегистрирован:  3 месяца 18 дней   |    Скачан:  0 раз

Полного источника не было: Никогда

 
   
 
 
 
Автор Сообщение

torrentc.info

Создавать темы 25-Авг-2018 22:35

[Цитировать]

Simone Kopmajer - Spotlight On Jazz Формат файла записи/Источник записи: [TR24][OF]
Наличие водяных знаков: Нет
Год издания/переиздания диска: 2018
Жанр: Vocal Jazz
Издатель (лейбл): Lucky Mojo Records
Продолжительность: 63:40
Наличие сканов в содержимом раздачи: Только обложка альбома
Треклист:
01. Spotlights (3:52)
02. Pennies From Heaven (5:08)
03. You Don't Call Me (3:26)
04. Mighty Tender Love (4:16)
05. Poinciana (6:46)
06. Dig That Riff (3:58)
07. Remember Jeannie (6:58)
08. Struttin' With Some Barbecue (4:08)
09. Exactly Like You (4:40)
10. A Gift From Buddy (4:38)
11. Stompin' At The Savoy (4:20)
12. We're Goin' In (4:28)
13. Mood Indigo (4:02)
14. Dig That Riff (3:02)
 

Несколько слов на английском

Simone Kopmajer, a native of Styria, has made her way and has a reputation in the jazz scene for being one of the most prominent in her field. Her fans are scattered all over the globe, her publications are also in demand in distant countries, she sings all over Europe, in the USA, in Japan, Israel and also Southeast Asia, where she enjoys the status of a star and fills the halls. With Spotlight On Jazz, Simone Kopmajer now inducts her next wave of fans.
Spotlight on Jazz celebrates a return to Jazz for Simone Kopmajer, reuniting with the leader of the Tommy Dorsey Orchestra, Terry Myers.
-Формат файла: FLAC (*.flac)
Тип рипа: tracks
Разрядность: 24/192
Формат файла: PCM
Количество каналов: 2.0

Лог проверки качества

foobar2000 1.3.9 / Dynamic Range Meter 1.1.1log date: 2018-08-25 01:47:59
--------------------------------------------------------------------------------Analyzed: Simone Kopmajer / Spotlight On Jazz--------------------------------------------------------------------------------
DR Peak RMS Duration Track--------------------------------------------------------------------------------DR9 -2.22 dB -12.94 dB 3:52 01-SpotlightsDR10 -2.14 dB -14.33 dB 5:08 02-Pennies From HeavenDR12 -0.72 dB -15.22 dB 3:26 03-You Don't Call MeDR10 -0.53 dB -11.50 dB 4:16 04-Mighty Tender LoveDR10 -2.32 dB -14.83 dB 6:46 05-PoincianaDR10 -0.09 dB -13.03 dB 3:58 06-Dig That RiffDR10 -1.57 dB -13.80 dB 6:58 07-Remember JeannieDR8 -1.80 dB -12.72 dB 4:08 08-Struttin' With Some BarbecueDR10 -2.73 dB -14.87 dB 4:40 09-Exactly Like YouDR12 -2.24 dB -16.96 dB 4:38 10-A Gift From BuddyDR12 -1.26 dB -14.26 dB 4:20 11-Stompin' At The SavoyDR10 -2.29 dB -13.19 dB 4:28 12-We're Goin' InDR11 -0.99 dB -14.35 dB 4:02 13-Mood IndigoDR12 -1.61 dB -15.54 dB 3:02 14-Dig That Riff--------------------------------------------------------------------------------
Number of tracks: 14Official DR value: DR10
Samplerate: 192000 HzChannels: 2Bits per sample: 24Bitrate: 4188 kbpsCodec: FLAC================================================================================
Источник: 7digital.com
 


[torrentc.info]_t_5604764.torrent
Торрент: Зарегистрирован ·  [ 2018-08-25 22:32 ] ·  8aab9e2ae5381be0f8893e736837f9932e61a582

18 KB

Статус: проверено
Скачан: 0 раз
Размер: 1.7 GB
Оценка: 
(Голосов: 0)
Сказали спасибо: 0  Спасибо
Похожие темы
[Профиль]    [ЛС]
Показать сообщения:    
Ответить на тему

Текущее время: Сегодня 01:52

Часовой пояс: GMT + 7



Вы не можете начинать темы
Вы не можете отвечать на сообщения
Вы не можете редактировать свои сообщения
Вы не можете удалять свои сообщения
Вы не можете голосовать в опросах
Вы не можете прикреплять файлы к сообщениям
Вы можете скачивать файлы