Нефритовый стебель / Jade Stalk / Yu pu tuan zhi yang wu xing jiao (Стефан Ип / Stephan Yip) [1999, Гонконг, комедия, эротика, DVDRip] VO (Виктор Береговых)

Ответить на тему
Статистика раздачи [Обновить пиров]
Размер:  1.37 GB   |    Зарегистрирован:  1 месяц 27 дней   |    Скачан:  0 раз

Полного источника не было: Никогда

 
   
 
 
 
Автор Сообщение

torrentc.info

Создавать темы 24-Авг-2018 00:23

[Цитировать]

Нефритовый стебель / Jade Stalk / Yu pu tuan zhi yang wu xing jiao
Страна: Гонконг
Жанр: комедия, эротика
Год выхода: 1999
Продолжительность: 01:26:41
Перевод: Одноголосый закадровый (Виктор Береговых)
Субтитры: нет
Режиссер: Стефан Ип / Stephan Yip
В ролях: Алан Чан, Пун Цзян-Вай, Цан Инь, Вон Мэй-Фань, Рэймонд Цан
Описание: Два недотепы Мэй и Сай устраиваются учителями к богачу, учить его умственно отсталого сына. Все бы ничего, но парень уже взрослый и отец намерен его женить. Он просит учителей рассказать, а лучше показать его сыну, как это делается, чтобы тот не опозорился в брачную ночь. Недолго думая, Сай и Мэй ведут Фэна в бордель...
Сэмпл: http://multi-up.com/1206992
Качество видео: DVDRip
Формат файла: AVI
Видео: 704x528 (4:3), 29.970 fps, 2056 kbps avg, 0.185 bit/pixel
Аудио: AC3, 48.0 KHz, 192 Kbps, 2 channels

MediaInfo

Format : AVIFormat/Info : Audio Video InterleaveFile size : 1.37 GiBDuration : 1h 26mnOverall bit rate : 2 256 KbpsWriting application : VirtualDubMod 1.5.4.1 (build 2178/release)Writing library : VirtualDubMod build 2178/release
VideoID : 0Format : MPEG-4 VisualFormat profile : AdvancedSimple@L5Format settings, BVOP : YesFormat settings, QPel : NoFormat settings, GMC : No warppointsFormat settings, Matrix : CustomCodec ID : XVIDCodec ID/Hint : XviDDuration : 1h 26mnBit rate : 2 056 KbpsWidth : 704 pixelsHeight : 528 pixelsDisplay aspect ratio : 4:3Frame rate : 29.970 fpsResolution : 24 bitsColorimetry : 4:2:0Scan type : ProgressiveBits/(Pixel*Frame) : 0.185Stream size : 1.24 GiB (91%)Writing library : XviD 1.2.0.dev47 (UTC 2006-11-01)
AudioID : 1Format : AC-3Format/Info : Audio Coding 3Codec ID : 2000Duration : 1h 26mnBit rate mode : ConstantBit rate : 192 KbpsChannel(s) : 2 channelsChannel positions : L RSampling rate : 48.0 KHzStream size : 119 MiB (9%)Alignment : Split accross interleavesInterleave, duration : 96 ms (2.88 video frames)Interleave, preload duration : 96 msLanguage : Russian

Скриншот c названием фильма

Скриншоты



[torrentc.info]_t_5604169.torrent
Торрент: Зарегистрирован ·  [ 2018-08-24 00:23 ] ·  c013cf0b0a659c2214962d1523ff36dd88fc3f1f

14 KB

Статус: проверено
Скачан: 0 раз
Размер: 1.37 GB
Оценка: 
(Голосов: 0)
Сказали спасибо: 0  Спасибо
Похожие темы
[Профиль]    [ЛС]
Показать сообщения:    
Ответить на тему

Текущее время: Сегодня 13:53

Часовой пояс: GMT + 7



Вы не можете начинать темы
Вы не можете отвечать на сообщения
Вы не можете редактировать свои сообщения
Вы не можете удалять свои сообщения
Вы не можете голосовать в опросах
Вы не можете прикреплять файлы к сообщениям
Вы можете скачивать файлы