Солнечная долина / Sun Valley / Ri guang xia gu (Хэ Пин / He Ping) [1996, Китай, драма, исторический, DVDRip] VO (Виктор Береговых)

Ответить на тему
Статистика раздачи [Обновить пиров]
Размер:  1.46 GB   |    Зарегистрирован:  1 месяц 28 дней   |    Скачан:  0 раз

Полного источника не было: Никогда

 
   
 
 
 
Автор Сообщение

torrentc.info

Создавать темы 23-Авг-2018 01:39

[Цитировать]

Солнечная долина / Sun Valley / Ri guang xia gu
Страна: Китай
Жанр: драма, исторический
Год выхода: 1996
Продолжительность: 01:55:22
Перевод: Одноголосый закадровый (Виктор Береговых)
Субтитры: нет
Режиссер: Хэ Пин / He Ping
В ролях: Чжан Фэнъи, Ян Кюймэй, Ван Сюэци, Ку Фэн, Чан Юэнь, Сунь Хайин
Описание: Фехтовальщик по прозвищу Мститель 20 лет ищет своего заклятого врага, убившего всю его семью. Мать Мстителя защитила его собой и ее кровь попала ему в рот и теперь Мститель, при виде крови теряет контроль и убивает всех подряд. Странствия приводят его в солнечную долину, в единственную в округе таверну, где живет знаменитый в прошлом фехтовальщик, по прозвищу Безумный Быстрый Меч. Он много лет ждет своего давнего врага, надеясь, что тот все таки появится.А заправляет таверной молодая вдова Хун Ли, ее муж, тоже в прошлом фехтовальщик, умер и теперь Хун Ли одна воспитывает маленького сына...
Сэмпл: http://multi-up.com/1206930
Качество видео: DVDRip
Формат файла: AVI
Видео: 704x400 (16:9), 29.970 fps, 1546 kbps avg, 0.183 bit/pixel
Аудио: AC3, 48.0 KHz, 256 Kbps, 2 channels

MediaInfo

Format : AVIFormat/Info : Audio Video InterleaveFile size : 1.46 GiBDuration : 1h 55mnOverall bit rate : 1 814 KbpsWriting application : VirtualDubMod 1.5.10.2 (build 2540/release)Writing library : VirtualDubMod build 2540/release
VideoID : 0Format : MPEG-4 VisualFormat profile : AdvancedSimple@L5Format settings, BVOP : YesFormat settings, QPel : NoFormat settings, GMC : No warppointsFormat settings, Matrix : CustomCodec ID : XVIDCodec ID/Hint : XviDDuration : 1h 55mnBit rate : 1 546 KbpsWidth : 704 pixelsHeight : 400 pixelsDisplay aspect ratio : 16:9Frame rate : 29.970 fpsResolution : 24 bitsColorimetry : 4:2:0Scan type : ProgressiveBits/(Pixel*Frame) : 0.183Stream size : 1.25 GiB (85%)Writing library : XviD 1.2.0.dev47 (UTC 2006-11-01)
AudioID : 1Format : AC-3Format/Info : Audio Coding 3Codec ID : 2000Duration : 1h 55mnBit rate mode : ConstantBit rate : 256 KbpsChannel(s) : 2 channelsChannel positions : L RSampling rate : 48.0 KHzStream size : 211 MiB (14%)Alignment : Split accross interleavesInterleave, duration : 33 ms (1.00 video frame)Interleave, preload duration : 500 msLanguage : Russian

Скриншот c названием фильма

Скриншоты



[torrentc.info]_t_5603699.torrent
Торрент: Зарегистрирован ·  [ 2018-08-23 01:38 ] ·  931a2cd2a9d0e0d814ce77f08f77f5161c95e1ea

15 KB

Статус: проверено
Скачан: 0 раз
Размер: 1.46 GB
Оценка: 
(Голосов: 0)
Сказали спасибо: 0  Спасибо
Похожие темы
[Профиль]    [ЛС]
Показать сообщения:    
Ответить на тему

Текущее время: Сегодня 19:55

Часовой пояс: GMT + 7



Вы не можете начинать темы
Вы не можете отвечать на сообщения
Вы не можете редактировать свои сообщения
Вы не можете удалять свои сообщения
Вы не можете голосовать в опросах
Вы не можете прикреплять файлы к сообщениям
Вы можете скачивать файлы