[TR24][OF] Mitski - Be the Cowboy - 2018 (Indie Rock)

Ответить на тему
Статистика раздачи [Обновить пиров]
Размер:  373 MB   |    Зарегистрирован:  30 дней   |    Скачан:  0 раз
Сидеров:  1  [  0 KB/s  ]   Подробная статистика скачивающих
 
   
 
 
 
Автор Сообщение

torrentc.info

Создавать темы 20-Авг-2018 04:05

[Цитировать]


Mitski

Be the Cowboy



• Формат файла записи | Источник записи: [TR24][OF]
• Наличие водяных знаков: Нет
• Страна исполнителя: USA
• Год издания релиза: 2018
• Жанр: Indie Rock
• Издатель (лейбл): Dead Oceans
• Продолжительность: 00:32:34
• Источник, релизер: BNMus
• WEB qobuz
• Формат файла: FLAC (*.flac)
• Тип рипа: tracks
• Разрядность: 24/44,1
• Формат файла: WAV (flac.ape.wv)
• Количество каналов: 2.0
• Наличие сканов: front

01 - Geyser (00:02:23)
02 - Why Didn't You Stop Me (00:02:21)
03 - Old Friend (00:01:52)
04 - A Pearl (00:02:36)
05 - Lonesome Love (00:01:50)
06 - Remember My Name (00:02:15)
07 - Me And My Husband (00:02:17)
08 - Come Into The Water (00:01:32)
09 - Nobody (00:03:13)
10 - Pink In The Night (00:02:16)
11 - A Horse Named Cold Air (00:02:03)
12 - Washing Machine Heart (00:02:08)
13 - Blue Light (00:01:43)
14 - Two Slow Dancers (00:03:59)
-

• Замер динамического диапазона •

foobar2000 1.3.17 / Замер динамического диапазона (DR) 1.1.1Дата отчёта: 2018-08-19 21:33:10
--------------------------------------------------------------------------------Анализ: Mitski / Be the Cowboy--------------------------------------------------------------------------------
DR Пики RMS Продолжительность трека--------------------------------------------------------------------------------DR5 0.00 дБ -7.85 дБ 2:24 01-GeyserDR6 0.00 дБ -8.51 дБ 2:22 02-Why Didn't You Stop Me?DR9 -0.04 дБ -10.39 дБ 1:53 03-Old FriendDR6 0.00 дБ -9.03 дБ 2:36 04-A PearlDR7 0.00 дБ -9.36 дБ 1:51 05-Lonesome LoveDR5 0.00 дБ -6.97 дБ 2:15 06-Remember My NameDR7 0.00 дБ -8.34 дБ 2:17 07-Me and My HusbandDR7 -0.12 дБ -9.05 дБ 1:32 08-Come into the WaterDR7 0.00 дБ -8.67 дБ 3:13 09-NobodyDR7 0.00 дБ -10.44 дБ 2:17 10-Pink in the NightDR9 -0.28 дБ -13.58 дБ 2:03 11-A Horse Named Cold AirDR5 0.00 дБ -6.77 дБ 2:08 12-Washing Machine HeartDR7 0.00 дБ -9.66 дБ 1:44 13-Blue LightDR10 -0.26 дБ -12.94 дБ 3:59 14-Two Slow Dancers--------------------------------------------------------------------------------
Количество треков: 14Реальные значения DR: DR7
Частота: 44100 ГцКаналов: 2Разрядность: 24Битрейт: 1422 кбит/сКодек: FLAC================================================================================
-

• Скриншот спектра частот •

-[img]https://i104.fastpic.ru/big/2018/0723/ef/fc14296b380a822d719f4966d46e77ef.jpg[/img]


[torrentc.info]_t_5602659.torrent
Торрент: Зарегистрирован ·  [ 2018-08-20 04:05 ] ·  77c320b92ef553cab2189cede9033cc635b07f42

16 KB

Статус: проверено
Скачан: 0 раз
Размер: 373 MB
Оценка: 
(Голосов: 0)
Сказали спасибо: 0  Спасибо
Похожие темы
[Профиль]    [ЛС]
Показать сообщения:    
Ответить на тему

Текущее время: Сегодня 19:57

Часовой пояс: GMT + 7



Вы не можете начинать темы
Вы не можете отвечать на сообщения
Вы не можете редактировать свои сообщения
Вы не можете удалять свои сообщения
Вы не можете голосовать в опросах
Вы не можете прикреплять файлы к сообщениям
Вы можете скачивать файлы