Вердикт народа / Citizen Verdict (Филипп Мартинез / Philippe Martinez) [2003, США, драма, DVDRip] MVO (Инис) + Original Eng

Ответить на тему
Статистика раздачи [Обновить пиров]
Размер:  1.42 GB   |    Зарегистрирован:  2 месяца   |    Скачан:  0 раз

Полного источника не было: Никогда

 
   
 
 
 
Автор Сообщение

torrentc.info

Создавать темы 19-Авг-2018 19:42

[Цитировать]

Вердикт народа / Citizen Verdict
Страна: США
Жанр: драма
Год выхода: 2003
Продолжительность: 01:33:58
Перевод: Профессиональный (многоголосый закадровый) Инис
Субтитры: нет
Оригинальная аудиодорожка: английский
Режиссер: Филипп Мартинез / Philippe Martinez
В ролях: Арманд Ассанте, Рой Шайдер, Джерри Спрингер
Описание: Теперь зритель вершит судьбы, не отходя от экрана. Теперь убить человека не сложнее, чем нажать на кнопку пульта. Марти Рокман, беспринципный продюсер, придумал по-настоящему захватывающее зрелище. В режиме реального времени миллионы американцев у себя на диване судят настоящих преступников. Их голосование заменяет вердикт присяжных. В случае смертного приговора его приведут в исполнение прямо на глазах анонимных судей. Идея может гарантировать сумасшедшие рейтинги. Вот только что делать, если обреченный на казнь в действительности невиновен?
Доп. информация: Фильм озвучен студией "Инис" по заказу компании "Central Partnership".
Сэмпл: https://yadi.sk/i/nABpD1Eo3aMtCH
Качество видео: DVDRip
Формат файла: AVI
Видео: XVid, 688x384 (16:9), 25 fps, ~1504 Kbps
Аудио: AC3, 48 kHz, 2.0 ch., 192 Kbps - MVO
Аудио 2: AC3, 48 kHz, 5.1 ch., 448 Kbps - english

MediaInfo

ОбщееПолное имя : D:\Torrents\Citizen Verdict [DVDRip 2003].aviФормат файла : AVIФормат файла/Информация : Audio Video InterleaveРазмер файла : 1,42 ГбайтПродолжительность : 1 ч. 33 м.Общий поток : 2158 Кбит/секПрограмма кодирования : VirtualDubMod 1.5.10.2 (build 2540/release)Библиотека кодирования : VirtualDubMod build 2540/release
ВидеоИдентификатор : 0Формат файла : MPEG-4 VisualПрофиль формата : Advanced Simple@L5Настройки формата : BVOP1Параметр BVOP формата : 1Параметр QPel формата : НетПараметр GMC формата : Без точки переходаПараметр матрицы формата : Default (H.263)Идентификатор кодека : XVIDИдентификатор кодека/Подсказка : XviDПродолжительность : 1 ч. 33 м.Битрейт : 1504 Кбит/секШирина : 688 пикселейВысота : 384 пикселяСоотношение сторон : 16:9Частота кадров : 25,000 кадров/секЦветовое пространство : YUVСубдискретизация насыщенности : 4:2:0Битовая глубина : 8 битТип развёртки : ПрогрессивнаяМетод сжатия : С потерямиБит/(Пиксели*Кадры) : 0.228Размер потока : 1011 Мбайт (70%)Библиотека кодирования : XviD 67
Аудио #1Идентификатор : 1Формат файла : AC-3Формат файла/Информация : Audio Coding 3Идентификатор кодека : 2000Продолжительность : 1 ч. 33 м.Вид битрейта : ПостоянныйБитрейт : 192 Кбит/секКаналы : 2 каналаРасположение каналов : Front: L RЧастота : 48,0 КГцЧастота кадров : 31,250 кадров/сек (1536 SPF)Битовая глубина : 16 битМетод сжатия : С потерямиРазмер потока : 129 Мбайт (9%)Выравнивание : Разделение по промежуткамПродолжительность промежутка : 40 мс. (1,00 видеокадр)Время предзагрузки промежутка : 500 мс.ServiceKind/String : Complete Main
Аудио #2Идентификатор : 2Формат файла : AC-3Формат файла/Информация : Audio Coding 3Идентификатор кодека : 2000Продолжительность : 1 ч. 33 м.Вид битрейта : ПостоянныйБитрейт : 448 Кбит/секКаналы : 6 каналовРасположение каналов : Front: L C R, Side: L R, LFEЧастота : 48,0 КГцЧастота кадров : 31,250 кадров/сек (1536 SPF)Битовая глубина : 16 битМетод сжатия : С потерямиРазмер потока : 301 Мбайт (21%)Выравнивание : Разделение по промежуткамПродолжительность промежутка : 40 мс. (1,00 видеокадр)Время предзагрузки промежутка : 500 мс.ServiceKind/String : Complete Main

Скриншот c названием фильма

Скриншоты



[torrentc.info]_t_5602407.torrent
Торрент: Зарегистрирован ·  [ 2018-08-19 19:42 ] ·  89e143b1e61f7a0cc042538bd1dc1ea2354785ac

15 KB

Статус: проверено
Скачан: 0 раз
Размер: 1.42 GB
Оценка: 
(Голосов: 0)
Сказали спасибо: 0  Спасибо
Похожие темы
[Профиль]    [ЛС]
Показать сообщения:    
Ответить на тему

Текущее время: Сегодня 14:27

Часовой пояс: GMT + 7



Вы не можете начинать темы
Вы не можете отвечать на сообщения
Вы не можете редактировать свои сообщения
Вы не можете удалять свои сообщения
Вы не можете голосовать в опросах
Вы не можете прикреплять файлы к сообщениям
Вы можете скачивать файлы