Возвращение счастливых звезд / Return of lucky stars / Fu xing chuang jiang hu (Стэнли Фун / Stanley Fung) [1985, Гонконг, комедия, приключения, DVDRip] [Тайваньская версия] AVO (Владимир Сонькин)

Ответить на тему
Статистика раздачи [Обновить пиров]
Размер:  744 MB   |    Зарегистрирован:  3 месяца 25 дней   |    Скачан:  0 раз

Полного источника не было: Никогда

 
   
 
 
 
Автор Сообщение

torrentc.info

Создавать темы 17-Авг-2018 00:32

[Цитировать]

Возвращение счастливых звезд / Return of lucky stars / Fu xing chuang jiang hu
Страна: Гонконг
Жанр: комедия, приключения
Год выхода: 1985
Продолжительность: 01:26:52
Перевод: Авторский (одноголосый закадровый) Владимир Сонькин
Субтитры: нет
Режиссер: Стэнли Фун / Stanley Fung
В ролях: Ричард Н, Эрик Цан, Чуи-Фан Фунг, Киу Вэй Миу, Карина Лау, Хой-Панг Ло, Чинг Вонг, Тат-Ва Чо, Джоан Тонг
Описание: Продолжение знаменитого фильма Мои счастливые звезды ,на этот раз четыре "Счастливые звезды". -- На этот раз четыре «счастливые звезды» утомленные криминальным прошлым, решают заняться легальным бизнесом и открывают салон для новобрачных. Но городским молодоженам недолго пришлось наслаждаться их сервисом, поскольку о существовании «звезд» опять вспомнила полиция. Дело в том, что в руки полицейских попал босс местной мафии. Лишившись «старшего брата» бандиты вышли из-под контроля и на борьбу с ними власти кидают своих проверенных агентов. Расчет полиции прост, если четверка добьется успеха, то вся слава достанется полиции, если провалится — потеря небольшая….
Доп. информация: Выражаю огромную благодарность Нордеру за синхронизацию звуковой дорожки и DVD-Источник: Torrentc. За дорогу благодарим alex2k5sk

Сэмпл: http://multi-up.com/1206426
Качество видео: DVDRip (Источник: Torrentc DVD-Video)
Формат файла: AVI
Видео: XviD 73, 656x352, (1,85:1), 23,976 fps, 996 Кбит/с, 8 бит
Аудио: Русский (АС3, 2 ch (Front: L R), 48,0 KHz, 192 Kbps

MediaInfo

ОбщееПолное имя : D:\Видеофильмы\В и д е о\Мои счастливые звезды - 2 (боевик, комедия 1985 год).aviФормат файла : AVIФормат файла/Информация : Audio Video InterleaveРазмер файла : 744 МбайтПродолжительность : 1 ч. 26 м.Общий поток : 1197 Кбит/секПрограмма кодирования : VirtualDubMod 1.5.10.3 | www.virtualdub-fr.org || (build 2550/release)Библиотека кодирования : VirtualDubMod build 2550/release
ВидеоИдентификатор : 0Формат файла : MPEG-4 VisualПрофиль формата : Advanced Simple@L5Параметр BVOP формата : 2Параметр QPel формата : НетПараметр GMC формата : Без точки переходаПараметр матрицы формата : ВыборочнаяИдентификатор кодека : XVIDИдентификатор кодека/Подсказка : XviDПродолжительность : 1 ч. 26 м.Битрейт : 996 Кбит/секШирина : 656 пикселейВысота : 352 пикселяСоотношение сторон : 1,85:1Частота кадров : 23,976 (24000/1001) кадра/секЦветовое пространство : YUVСубдискретизация насыщенности : 4:2:0Битовая глубина : 8 битТип развёртки : ПрогрессивнаяМетод сжатия : С потерямиБит/(Пиксели*Кадры) : 0.180Размер потока : 619 Мбайт (83%)Библиотека кодирования : XviD 73
АудиоИдентификатор : 1Формат файла : AC-3Формат файла/Информация : Audio Coding 3Расширение режима : CM (complete main)Параметр Endianness формата : BigИдентификатор кодека : 2000Продолжительность : 1 ч. 26 м.Вид битрейта : ПостоянныйБитрейт : 192 Кбит/секКаналы : 2 каналаРасположение каналов : Front: L RЧастота : 48,0 КГцЧастота кадров : 31,250 кадров/сек (1536 spf)Метод сжатия : С потерямиРазмер потока : 119 Мбайт (16%)Выравнивание : Разделение по промежуткамПродолжительность промежутка : 42 мс. (1,00 видеокадр)Время предзагрузки промежутка : 500 мс.

Скриншот c названием фильма

Скриншоты

Источник: Torrentchttp://Torrentc/forum/viewtopic.php?t=599604


[torrentc.info]_t_5601156.torrent
Торрент: Зарегистрирован ·  [ 2018-08-17 00:32 ] ·  160fb6eec581cf8a56840caeda50abd41d74a3ef

15 KB

Статус: проверено
Скачан: 0 раз
Размер: 744 MB
Оценка: 
(Голосов: 0)
Сказали спасибо: 0  Спасибо
Похожие темы
[Профиль]    [ЛС]
Показать сообщения:    
Ответить на тему

Текущее время: Сегодня 16:11

Часовой пояс: GMT + 7



Вы не можете начинать темы
Вы не можете отвечать на сообщения
Вы не можете редактировать свои сообщения
Вы не можете удалять свои сообщения
Вы не можете голосовать в опросах
Вы не можете прикреплять файлы к сообщениям
Вы можете скачивать файлы