(Southern Rock/Classic Rock) [CD] Raging Slab - Raging Slab [Japan, R32P-1239, 1989] - 1989, FLAC (image+.cue), lossless

Ответить на тему
Статистика раздачи [Обновить пиров]
Размер:  255 MB   |    Зарегистрирован:  3 месяца 4 дня   |    Скачан:  0 раз

Полного источника не было: Никогда

 
   
 
 
 
Автор Сообщение

torrentc.info

Создавать темы 12-Авг-2018 21:36

[Цитировать]

Raging Slab - Raging Slab
Жанр: Southern Rock/Classic Rock
Носитель: CD
Страна-производитель диска: Япония
Год издания: 1989
Издатель (лейбл): RCA/RVC
Номер по каталогу: R32P-1239
Страна исполнителя (группы): США
Аудиокодек: FLAC (*.flac)
Тип рипа: image+.cue
Битрейт аудио: lossless
Продолжительность: 37:44
Источник (релизер): Собственный рип
Наличие сканов в содержимом раздачи: да
Треклист:
1. Don't Dog Me (03:52)
2. Joy Ride (03:43)
3. Sorry's All I Got (02:59)
4. Waiting for the Potion (02:46)
5. Gett Off My Jollies (03:51)
6. Shiny Mama (03:21)
7. Geronimo (04:55)
8. Bent for Silver (03:01)
9. Love Comes Loose (03:06)
10. Dig a Hole (03:07)
11. San Loco (02:59)

Лог создания рипа

Exact Audio Copy V1.0 beta 3 from 29. August 2011
Отчёт EAC об извлечении, выполненном 16. апреля 2018, 20:53
Raging Slab / Raging Slab [R32P-1239]
Дисковод: ASUS DRW-2014S1 Adapter: 1 ID: 0
Режим чтения : ДостоверностьИспользование точного потока : ДаОтключение кэша аудио : ДаИспользование указателей C2 : Нет
Коррекция смещения при чтении : 6Способность читать области Lead-in и Lead-out : НетЗаполнение пропущенных сэмплов тишиной : ДаУдаление блоков с тишиной в начале и конце : НетПри вычислениях CRC использовались нулевые сэмплы : ДаИнтерфейс : Встроенный Win32-интерфейс для Win NT/2000
Выходной формат : Пользовательский кодировщикВыбранный битрейт : 128 kBit/sКачество : ВысокийДобавление ID3-тега : НетУтилита сжатия : C:\Program Files (x86)\Exact Audio Copy\Flac\flac.exeДополнительные параметры : -V -8 -T "Date=%year%" -T "Genre=%genre%" %source%
TOC извлечённого CD
Трек | Старт | Длительность | Начальный сектор | Конечный сектор --------------------------------------------------------------------- 1 | 0:00.37 | 3:52.30 | 37 | 17466 2 | 3:52.67 | 3:43.05 | 17467 | 34196 3 | 7:35.72 | 2:59.40 | 34197 | 47661 4 | 10:35.37 | 2:46.38 | 47662 | 60149 5 | 13:22.00 | 3:51.12 | 60150 | 77486 6 | 17:13.12 | 3:21.00 | 77487 | 92561 7 | 20:34.12 | 4:55.65 | 92562 | 114751 8 | 25:30.02 | 3:01.23 | 114752 | 128349 9 | 28:31.25 | 3:06.55 | 128350 | 142354 10 | 31:38.05 | 3:07.25 | 142355 | 156404 11 | 34:45.30 | 3:00.07 | 156405 | 169911
Характеристики диапазона извлечения и сообщения об ошибках
Выбранный диапазон
Имя файла Z:\Raging Slab\1989 Raging Slab\Raging Slab - Raging Slab [R32P-1239].wav
Пиковый уровень 98.7 % Скорость извлечения 7.6 X Качество диапазона 100.0 % CRC копии 5FAE51FC Копирование... OK
Ошибок не произошло
AccurateRip: сводка
Трек 1 отсутствует в базе данныхТрек 2 отсутствует в базе данныхТрек 3 отсутствует в базе данныхТрек 4 отсутствует в базе данныхТрек 5 отсутствует в базе данныхТрек 6 отсутствует в базе данныхТрек 7 отсутствует в базе данныхТрек 8 отсутствует в базе данныхТрек 9 отсутствует в базе данныхТрек 10 отсутствует в базе данныхТрек 11 отсутствует в базе данных
Ни одного трека нет в базе AccurateRip
Конец отчёта
==== Контрольная сумма отчёта 1006E27F28D14CC8EA64AA3B49543C15268D2531CFA7E0FFDAF12B4934F3644B ====


[torrentc.info]_t_5597258.torrent
Торрент: Зарегистрирован ·  [ 2018-08-12 21:33 ] ·  e770b76b2811962f25f5d28750f5252ca7bedc78

21 KB

Статус: проверено
Скачан: 0 раз
Размер: 255 MB
Оценка: 
(Голосов: 0)
Сказали спасибо: 0  Спасибо
Похожие темы
[Профиль]    [ЛС]
Показать сообщения:    
Ответить на тему

Текущее время: Сегодня 21:47

Часовой пояс: GMT + 7



Вы не можете начинать темы
Вы не можете отвечать на сообщения
Вы не можете редактировать свои сообщения
Вы не можете удалять свои сообщения
Вы не можете голосовать в опросах
Вы не можете прикреплять файлы к сообщениям
Вы можете скачивать файлы