[VIDEO] Тор: Трилогия / Thor: Trilogy (Кеннет Брана / Kenneth Branagh, Алан Тейлор / Alan Taylor, Тайка Вайтити / Taika Waititi) [2011-2017, фэнтези, боевик, приключения, BDRip] [MP4, 960x]

Ответить на тему
Статистика раздачи [Обновить пиров]
Размер:  5.01 GB   |    Зарегистрирован:  3 месяца 4 дня   |    Скачан:  0 раз

Полного источника не было: Никогда

 
   
 
 
 
Автор Сообщение

torrentc.info

Создавать темы 12-Авг-2018 21:35

[Цитировать]

Тор: Трилогия / Thor: Trilogy

Тор 2011

Тор / Thor- - -Год выхода: 2011
Страна: США
Жанр: фэнтези, боевик, драма, приключения
Продолжительность: 01:54:50
Перевод №1: русский Профессиональный (полное дублирование) Blu-Ray CEE
Перевод №2: украинский Профессиональный (полное дублирование) DVD R5
Перевод №3: русский Авторский (одноголосый, закадровый) Ю.Сербин
Перевод №4: русский Одноголосый (закадровый) Zamez
Оригинальная дорожка: Есть
Субтитры: русские (полные Blu-ray CEE), (полные -"voronine"), (SDH-"voronine"), украинские (полные), английские (полные), (SDH)
-Режиссер: Кеннет Брана / Kenneth Branagh-В ролях: Натали Портман, Энтони Хопкинс, Крис Хемсворт, Том Хиддлстон, Стеллан Скарсгард, Кэт Деннингс, Кларк Грегг, Идрис Эльба, Колм Фиор, Рэй Стивенсон и другие .-Описание: Эпическое приключение происходит как на нашей планете Земля, так и в вымышленном королевстве богов Асгарде. В центре истории — Могучий Тор, сильный, но высокомерный воин, чьи безрассудные поступки возрождают древнюю войну в Асгарде. Тора отправляют в ссылку на Землю, лишают сил и заставляют жить среди обычных людей в качестве наказания. Тор узнает, сколько требуется сил, чтобы стать настоящим героем, когда самый опасный злодей его мира направляет темные силы поглотить Землю .-[img]https://rating.kinopoisk.ru/258941.gif[/img] -Качество: BDRip / рип с Blu-ray disc 1080p [CEE]
Формат файла: MP4
Видео кодек: H.264
Аудио кодек: AAC
Видео: 960x408 AR:2.35 1740 kbps 23.976 fps
Аудио №1: [Russian] 2ch 48 kHz 128 kbps - [Dub] Профессиональный (полное дублирование) Blu-Ray CEE
Аудио №2: [Ukrainian] 2ch 48 kHz 128 kbps - [Dub] Профессиональный (полное дублирование) DVD R5
Аудио №3: [Russian] 2ch 48 kHz 128 kbps - [VO] Авторский (одноголосый, закадровый) Ю.Сербин
Аудио №4: [Russian] 2ch 48 kHz 128 kbps - [VO] Одноголосый (закадровый) Zamez
Аудио №5: [English] 2ch 48 kHz 128 kbps - Original
-

Logx264

avs [info]: 960x408p 1:1 @ 24000/1001 fps (cfr)
x264 [info]: using SAR=1/1
x264 [info]: using cpu capabilities: MMX2 SSE2Fast SSSE3 SSE4.2 AVX FMA3 BMI2 AVX2
x264 [info]: profile High, level 4.1
x264 [info]: frame I:1296 Avg QP:15.93 size: 55895
x264 [info]: frame P:41609 Avg QP:20.25 size: 17240
x264 [info]: frame B:122306 Avg QP:21.64 size: 5799
x264 [info]: consecutive B-frames: 4.5% 4.9% 12.9% 20.3% 17.2% 28.8% 5.1% 2.1% 1.6% 0.8% 0.9% 0.8%
x264 [info]: mb I I16..4: 5.8% 70.0% 24.2%
x264 [info]: mb P I16..4: 1.2% 10.0% 1.7% P16..4: 33.2% 36.0% 11.0% 0.0% 0.0% skip: 6.8%
x264 [info]: mb B I16..4: 0.1% 1.2% 0.2% B16..8: 34.5% 18.8% 3.1% direct: 5.0% skip:37.1% L0:44.1% L1:43.0% BI:12.9%
x264 [info]: 8x8 transform intra:76.7% inter:61.8%
x264 [info]: direct mvs spatial:96.1% temporal:3.9%
x264 [info]: coded y,uvDC,uvAC intra: 83.7% 81.3% 55.4% inter: 23.1% 18.2% 6.7%
x264 [info]: i16 v,h,dc,p: 15% 15% 6% 64%
x264 [info]: i8 v,h,dc,ddl,ddr,vr,hd,vl,hu: 10% 6% 5% 10% 15% 14% 14% 12% 14%
x264 [info]: i4 v,h,dc,ddl,ddr,vr,hd,vl,hu: 12% 7% 5% 9% 15% 13% 14% 10% 13%
x264 [info]: i8c dc,h,v,p: 38% 25% 18% 19%
x264 [info]: Weighted P-Frames: Y:20.7% UV:14.2%
x264 [info]: ref P L0: 48.3% 9.9% 17.1% 7.0% 5.2% 4.1% 3.5% 2.2% 2.0% 0.6% 0.1%
x264 [info]: ref B L0: 73.2% 11.2% 6.4% 3.5% 2.2% 1.8% 1.2% 0.4%
x264 [info]: ref B L1: 94.3% 5.7%
x264 [info]: kb/s:1740.36
encoded 165211 frames, 15.60 fps, 1740.36 kb/s

ТХ/MediaInfo

GeneralComplete name : K:\Torrents\Thor Trilogy.2011-2017.BDRip.x264.960x\Thor.2011.BDRip.x264.960x.rip by Frost O.S.mp4Format : MPEG-4Format profile : 3GPP Release 6 GeneralCodec ID : 3gg6 (isom/3gg6/mp42)File size : 1.92 GiBDuration : 1 h 54 minOverall bit rate mode : VariableOverall bit rate : 2 392 kb/sEncoded date : UTC 2018-08-10 11:53:14Tagged date : UTC 2018-08-10 11:53:14
VideoID : 1Format : AVCFormat/Info : Advanced Video CodecFormat profile : High@L4.1Format settings : CABAC / 9 Ref FramesFormat settings, CABAC : YesFormat settings, RefFrames : 9 framesCodec ID : avc1Codec ID/Info : Advanced Video CodingDuration : 1 h 54 minBit rate : 1 740 kb/sMaximum bit rate : 11.4 Mb/sWidth : 960 pixelsHeight : 408 pixelsDisplay aspect ratio : 2.35:1Frame rate mode : ConstantFrame rate : 23.976 (24000/1001) FPSColor space : YUVChroma subsampling : 4:2:0Bit depth : 8 bitsScan type : ProgressiveBits/(Pixel*Frame) : 0.185Stream size : 1.40 GiB (73%)Writing library : x264 core 152 r2851 ba24899Encoding settings : cabac=1 / ref=9 / deblock=1:-2:-1 / analyse=0x3:0x113 / me=umh / subme=11 / psy=1 / psy_rd=0.95:0.00 / mixed_ref=1 / me_range=32 / chroma_me=1 / trellis=2 / 8x8dct=1 / cqm=0 / deadzone=21,11 / fast_pskip=0 / chroma_qp_offset=-2 / threads=6 / lookahead_threads=1 / sliced_threads=0 / nr=0 / decimate=0 / interlaced=0 / bluray_compat=0 / constrained_intra=0 / bframes=11 / b_pyramid=2 / b_adapt=2 / b_bias=0 / direct=3 / weightb=1 / open_gop=0 / weightp=2 / keyint=250 / keyint_min=23 / scenecut=40 / intra_refresh=0 / rc=2pass / mbtree=0 / bitrate=1740 / ratetol=1.0 / qcomp=0.70 / qpmin=0 / qpmax=69 / qpstep=4 / cplxblur=20.0 / qblur=0.5 / ip_ratio=1.40 / pb_ratio=1.30 / aq=2:0.70 / zones=154048,162737,q=30Encoded date : UTC 2018-08-06 19:20:07Tagged date : UTC 2018-08-10 11:54:04Color range : LimitedColor primaries : BT.709Transfer characteristics : BT.709Matrix coefficients : BT.709
Audio #1ID : 2Format : AACFormat/Info : Advanced Audio CodecFormat profile : LCCodec ID : mp4a-40-2Duration : 1 h 54 minBit rate mode : VariableBit rate : 128 kb/sMaximum bit rate : 134 kb/sChannel(s) : 2 channelsChannel positions : Front: L RSampling rate : 48.0 kHzFrame rate : 46.875 FPS (1024 SPF)Compression mode : LossyStream size : 105 MiB (5%)Title : Russian / Dub, Blu-Ray CEEEncoded date : UTC 2018-08-10 10:05:22Tagged date : UTC 2018-08-10 11:54:04
Audio #2ID : 3Format : AACFormat/Info : Advanced Audio CodecFormat profile : LCCodec ID : mp4a-40-2Duration : 1 h 54 minBit rate mode : VariableBit rate : 128 kb/sMaximum bit rate : 137 kb/sChannel(s) : 2 channelsChannel positions : Front: L RSampling rate : 48.0 kHzFrame rate : 46.875 FPS (1024 SPF)Compression mode : LossyStream size : 105 MiB (5%)Title : Ukrainian / Dub, DVD R5Encoded date : UTC 2018-08-10 10:13:43Tagged date : UTC 2018-08-10 11:54:04
Audio #3ID : 4Format : AACFormat/Info : Advanced Audio CodecFormat profile : LCCodec ID : mp4a-40-2Duration : 1 h 54 minBit rate mode : VariableBit rate : 128 kb/sMaximum bit rate : 137 kb/sChannel(s) : 2 channelsChannel positions : Front: L RSampling rate : 48.0 kHzFrame rate : 46.875 FPS (1024 SPF)Compression mode : LossyStream size : 105 MiB (5%)Title : Russian / VO, SerbinEncoded date : UTC 2018-08-10 10:16:59Tagged date : UTC 2018-08-10 11:54:04
Audio #4ID : 5Format : AACFormat/Info : Advanced Audio CodecFormat profile : LCCodec ID : mp4a-40-2Duration : 1 h 54 minBit rate mode : VariableBit rate : 128 kb/sMaximum bit rate : 136 kb/sChannel(s) : 2 channelsChannel positions : Front: L RSampling rate : 48.0 kHzFrame rate : 46.875 FPS (1024 SPF)Compression mode : LossyStream size : 105 MiB (5%)Title : Russian / VO, ZamezEncoded date : UTC 2018-08-10 10:20:58Tagged date : UTC 2018-08-10 11:54:04
Audio #5ID : 6Format : AACFormat/Info : Advanced Audio CodecFormat profile : LCCodec ID : mp4a-40-2Duration : 1 h 54 minBit rate mode : VariableBit rate : 128 kb/sMaximum bit rate : 138 kb/sChannel(s) : 2 channelsChannel positions : Front: L RSampling rate : 48.0 kHzFrame rate : 46.875 FPS (1024 SPF)Compression mode : LossyStream size : 105 MiB (5%)Title : English / OriginalEncoded date : UTC 2018-08-10 10:01:34Tagged date : UTC 2018-08-10 11:54:04
Text #1ID : 7Format : Timed TextCodec ID : tx3gDuration : 1 h 54 minBit rate mode : VariableBit rate : 67 b/sStream size : 56.6 KiB (0%)Title : Russian / Full Blu-ray CEEForced : NoEncoded date : UTC 2018-08-10 11:18:33Tagged date : UTC 2018-08-10 11:54:04
Text #2ID : 8Format : Timed TextCodec ID : tx3gDuration : 1 h 54 minBit rate mode : VariableBit rate : 75 b/sStream size : 62.7 KiB (0%)Title : Russian / Full voronineForced : NoEncoded date : UTC 2018-08-10 11:18:33Tagged date : UTC 2018-08-10 11:54:04
Text #3ID : 9Format : Timed TextCodec ID : tx3gDuration : 1 h 54 minBit rate mode : VariableBit rate : 79 b/sStream size : 66.1 KiB (0%)Title : Russian / SDH voronineForced : NoEncoded date : UTC 2018-08-10 11:18:33Tagged date : UTC 2018-08-10 11:54:04
Text #4ID : 10Format : Timed TextCodec ID : tx3gDuration : 1 h 54 minBit rate mode : VariableBit rate : 60 b/sStream size : 50.1 KiB (0%)Title : Ukrainian / FullForced : NoEncoded date : UTC 2018-08-10 11:18:33Tagged date : UTC 2018-08-10 11:54:04
Text #5ID : 11Format : Timed TextCodec ID : tx3gDuration : 1 h 54 minBit rate mode : VariableBit rate : 44 b/sStream size : 36.9 KiB (0%)Title : English / FullForced : NoEncoded date : UTC 2018-08-10 11:18:33Tagged date : UTC 2018-08-10 11:54:04
Text #6ID : 12Format : Timed TextCodec ID : tx3gDuration : 1 h 54 minBit rate mode : VariableBit rate : 47 b/sStream size : 39.2 KiB (0%)Title : English / SDHForced : NoEncoded date : UTC 2018-08-10 11:18:33Tagged date : UTC 2018-08-10 11:54:04

Тор 2: Царство тьмы 2013

Тор 2: Царство тьмы / Thor: The Dark World- - -Год выхода: 2013
Страна: США
Жанр: фэнтези, боевик, приключения
Продолжительность: 01:52:27
Перевод №1: русский Профессиональный (полное дублирование) Blu-Ray EUR
Перевод №2: русский Профессиональный (полное дублирование) + вставки А. Гаврилова на речь эльфов
Перевод №3: украинский Профессиональный (полное дублирование)
Перевод №4: русский Авторский (одноголосый, закадровый) А.Гаврилов
Оригинальная дорожка: Есть
Субтитры: русские (форсированные), (полные), (полные -"Анастасия Кисиленко (Medveditsa)"), (полные-"Notabenoid"), английские (форсированные), (полные), (SDH), (SDH-Colored)
-Режиссер: Алан Тейлор / Alan Taylor-В ролях: Крис Хемсворт, Натали Портман, Том Хиддлстон, Энтони Хопкинс, Джейми Александер, Рэй Стивенсон, Кэт Деннингс и другие .-Описание: Тору предстоит сразиться за спасение Земли и Девяти Миров от таинственного врага из времен, предшествовавших возникновению вселенной. После событий «Тора» и «Мстителей» главный герой борется за восстановление порядка в космосе, но древняя раса во главе с мстительным Малекитом возвращается, чтобы погрузить вселенную обратно во тьму. Столкнувшись с врагом, которому не способен противостоять ни Один, ни весь Асгард, Тор отправляется в самое рискованное путешествие, которое воссоединит его с Джейн Фостер с Земли и заставит пожертвовать всем ради спасения вселенной .-[img]https://rating.kinopoisk.ru/595938.gif[/img] -Качество: BDRip / рип с Blu-ray disc 1080p [EUR]
Формат файла: MP4
Видео кодек: H.264
Аудио кодек: AAC
Видео: 960x400 AR:2.40 1000 kbps 23.976 fps
Аудио №1: [Russian] 2ch 48 kHz 128 kbps - [Dub] Профессиональный (полное дублирование) Blu-Ray EUR
Перевод №2: русский Профессиональный (полное дублирование) + вставки А. Гаврилова на речь эльфов
Аудио №3: [Ukrainian] 2ch 48 kHz 128 kbps - [Dub] Профессиональный (полное дублирование)
Аудио №4: [Russian] 2ch 48 kHz 128 kbps - [VO] Авторский (одноголосый, закадровый) А.Гаврилов
Аудио №5: [English] 2ch 48 kHz 128 kbps - Original
-

Logx264

avs [info]: 960x400p 1:1 @ 24000/1001 fps (cfr)
x264 [info]: using SAR=1/1
x264 [info]: using cpu capabilities: MMX2 SSE2Fast SSSE3 SSE4.2 AVX FMA3 BMI2 AVX2
x264 [info]: profile High, level 4.1
x264 [info]: frame I:1584 Avg QP:16.48 size: 37739
x264 [info]: frame P:41474 Avg QP:20.90 size: 10334
x264 [info]: frame B:118140 Avg QP:22.45 size: 2980
x264 [info]: consecutive B-frames: 4.0% 6.4% 11.4% 28.0% 19.0% 23.5% 4.0% 2.1% 1.6%
x264 [info]: mb I I16..4: 7.0% 69.6% 23.4%
x264 [info]: mb P I16..4: 1.8% 9.2% 1.5% P16..4: 35.7% 32.6% 7.6% 0.0% 0.0% skip:11.5%
x264 [info]: mb B I16..4: 0.2% 1.1% 0.1% B16..8: 32.9% 13.0% 1.6% direct: 2.6% skip:48.4% L0:41.3% L1:49.0% BI: 9.7%
x264 [info]: 8x8 transform intra:73.2% inter:63.9%
x264 [info]: direct mvs spatial:93.9% temporal:6.1%
x264 [info]: coded y,uvDC,uvAC intra: 74.0% 70.4% 36.5% inter: 12.5% 9.1% 2.8%
x264 [info]: i16 v,h,dc,p: 13% 14% 4% 69%
x264 [info]: i8 v,h,dc,ddl,ddr,vr,hd,vl,hu: 8% 7% 5% 10% 14% 14% 15% 13% 16%
x264 [info]: i4 v,h,dc,ddl,ddr,vr,hd,vl,hu: 11% 8% 6% 9% 15% 13% 14% 11% 14%
x264 [info]: i8c dc,h,v,p: 31% 29% 20% 21%
x264 [info]: Weighted P-Frames: Y:13.6% UV:9.0%
x264 [info]: ref P L0: 54.7% 9.4% 15.0% 6.0% 4.2% 3.7% 3.2% 1.8% 1.6% 0.3% 0.1%
x264 [info]: ref B L0: 80.6% 9.0% 4.6% 2.0% 1.5% 1.2% 0.8% 0.2%
x264 [info]: ref B L1: 95.2% 4.8%
x264 [info]: kb/s:1000.06
encoded 161198 frames, 21.09 fps, 1000.06 kb/s

ТХ/MediaInfo

GeneralComplete name : K:\Torrents\Thor Trilogy.2011-2017.BDRip.x264.960x\Thor The Dark World.2013.BDRip.x264.960x.rip by Frost O.S.mp4Format : MPEG-4Format profile : Base MediaCodec ID : isom (isom)File size : 1.29 GiBDuration : 1 h 52 minOverall bit rate mode : VariableOverall bit rate : 1 646 kb/sEncoded date : UTC 2018-08-10 12:50:44Tagged date : UTC 2018-08-10 12:50:44Writing application : My MP4Box GUI 0.6.0.6
VideoID : 1Format : AVCFormat/Info : Advanced Video CodecFormat profile : High@L4.1Format settings : CABAC / 9 Ref FramesFormat settings, CABAC : YesFormat settings, RefFrames : 9 framesCodec ID : avc1Codec ID/Info : Advanced Video CodingDuration : 1 h 52 minBit rate : 1 000 kb/sMaximum bit rate : 5 504 kb/sWidth : 960 pixelsHeight : 400 pixelsDisplay aspect ratio : 2.40:1Frame rate mode : ConstantFrame rate : 23.976 (24000/1001) FPSColor space : YUVChroma subsampling : 4:2:0Bit depth : 8 bitsScan type : ProgressiveBits/(Pixel*Frame) : 0.109Stream size : 802 MiB (61%)Title : Thor The Dark World.2013.BDRip.x264.960x.rip by Frost O.SWriting library : x264 core 152 r2851 ba24899Encoding settings : cabac=1 / ref=9 / deblock=1:-2:-1 / analyse=0x3:0x113 / me=umh / subme=11 / psy=1 / psy_rd=0.95:0.00 / mixed_ref=1 / me_range=32 / chroma_me=1 / trellis=2 / 8x8dct=1 / cqm=0 / deadzone=21,11 / fast_pskip=0 / chroma_qp_offset=-2 / threads=6 / lookahead_threads=1 / sliced_threads=0 / nr=0 / decimate=0 / interlaced=0 / bluray_compat=0 / constrained_intra=0 / bframes=8 / b_pyramid=2 / b_adapt=2 / b_bias=0 / direct=3 / weightb=1 / open_gop=0 / weightp=2 / keyint=250 / keyint_min=23 / scenecut=40 / intra_refresh=0 / rc=2pass / mbtree=0 / bitrate=1000 / ratetol=1.0 / qcomp=0.70 / qpmin=0 / qpmax=69 / qpstep=4 / cplxblur=20.0 / qblur=0.5 / ip_ratio=1.40 / pb_ratio=1.30 / aq=1:0.70Encoded date : UTC 2018-08-07 17:48:47Tagged date : UTC 2018-08-10 12:50:55Color range : LimitedColor primaries : BT.709Transfer characteristics : BT.709Matrix coefficients : BT.709
Audio #1ID : 2Format : AACFormat/Info : Advanced Audio CodecFormat profile : LCCodec ID : mp4a-40-2Duration : 1 h 52 minBit rate mode : VariableBit rate : 128 kb/sMaximum bit rate : 135 kb/sChannel(s) : 2 channelsChannel positions : Front: L RSampling rate : 48.0 kHzFrame rate : 46.875 FPS (1024 SPF)Compression mode : LossyStream size : 103 MiB (8%)Title : Russian / Dub, Blu-Ray EUREncoded date : UTC 2018-08-10 12:50:49Tagged date : UTC 2018-08-10 12:50:55
Audio #2ID : 3Format : AACFormat/Info : Advanced Audio CodecFormat profile : LCCodec ID : mp4a-40-2Duration : 1 h 52 minBit rate mode : VariableBit rate : 128 kb/sMaximum bit rate : 136 kb/sChannel(s) : 2 channelsChannel positions : Front: L RSampling rate : 48.0 kHzFrame rate : 46.875 FPS (1024 SPF)Compression mode : LossyStream size : 103 MiB (8%)Title : Russian / Dub, plus vstavki Gavrilova na rech elphovEncoded date : UTC 2018-08-10 12:50:50Tagged date : UTC 2018-08-10 12:50:55
Audio #3ID : 4Format : AACFormat/Info : Advanced Audio CodecFormat profile : LCCodec ID : mp4a-40-2Duration : 1 h 52 minBit rate mode : VariableBit rate : 128 kb/sMaximum bit rate : 136 kb/sChannel(s) : 2 channelsChannel positions : Front: L RSampling rate : 48.0 kHzFrame rate : 46.875 FPS (1024 SPF)Compression mode : LossyStream size : 103 MiB (8%)Title : Ukrainian / DubEncoded date : UTC 2018-08-10 12:50:52Tagged date : UTC 2018-08-10 12:50:55
Audio #4ID : 5Format : AACFormat/Info : Advanced Audio CodecFormat profile : LCCodec ID : mp4a-40-2Duration : 1 h 52 minBit rate mode : VariableBit rate : 128 kb/sMaximum bit rate : 137 kb/sChannel(s) : 2 channelsChannel positions : Front: L RSampling rate : 48.0 kHzFrame rate : 46.875 FPS (1024 SPF)Compression mode : LossyStream size : 103 MiB (8%)Title : Russian / VO, GavrilovEncoded date : UTC 2018-08-10 12:50:53Tagged date : UTC 2018-08-10 12:50:55
Audio #5ID : 6Format : AACFormat/Info : Advanced Audio CodecFormat profile : LCCodec ID : mp4a-40-2Duration : 1 h 52 minBit rate mode : VariableBit rate : 128 kb/sMaximum bit rate : 136 kb/sChannel(s) : 2 channelsChannel positions : Front: L RSampling rate : 48.0 kHzFrame rate : 46.875 FPS (1024 SPF)Compression mode : LossyStream size : 103 MiB (8%)Title : English / OriginalEncoded date : UTC 2018-08-10 12:50:54Tagged date : UTC 2018-08-10 12:50:55
Text #1ID : 7Format : Timed TextCodec ID : tx3gDuration : 1 h 43 minBit rate mode : VariableBit rate : 2 b/sStream size : 1.88 KiB (0%)Title : Russian / ForcedForced : NoEncoded date : UTC 2018-08-10 12:50:55Tagged date : UTC 2018-08-10 12:50:55
Text #2ID : 8Format : Timed TextCodec ID : tx3gDuration : 1 h 45 minBit rate mode : VariableBit rate : 71 b/sStream size : 54.6 KiB (0%)Title : Russian / FullForced : NoEncoded date : UTC 2018-08-10 12:50:55Tagged date : UTC 2018-08-10 12:50:55
Text #3ID : 9Format : Timed TextCodec ID : tx3gDuration : 1 h 45 minBit rate mode : VariableBit rate : 79 b/sStream size : 61.1 KiB (0%)Title : Russian / Full MedveditsaForced : NoEncoded date : UTC 2018-08-10 12:50:55Tagged date : UTC 2018-08-10 12:50:55
Text #4ID : 10Format : Timed TextCodec ID : tx3gDuration : 1 h 46 minBit rate mode : VariableBit rate : 71 b/sStream size : 55.3 KiB (0%)Title : Russian / Full NotabenoidForced : NoEncoded date : UTC 2018-08-10 12:50:55Tagged date : UTC 2018-08-10 12:50:55
Text #5ID : 11Format : Timed TextCodec ID : tx3gDuration : 1 h 15 minBit rate mode : VariableBit rate : 2 b/sStream size : 1.08 KiB (0%)Title : English / ForcedForced : NoEncoded date : UTC 2018-08-10 12:50:55Tagged date : UTC 2018-08-10 12:50:55
Text #6ID : 12Format : Timed TextCodec ID : tx3gDuration : 1 h 45 minBit rate mode : VariableBit rate : 48 b/sStream size : 37.4 KiB (0%)Title : English / FullForced : NoEncoded date : UTC 2018-08-10 12:50:55Tagged date : UTC 2018-08-10 12:50:55
Text #7ID : 13Format : Timed TextCodec ID : tx3gDuration : 1 h 51 minBit rate mode : VariableBit rate : 52 b/sStream size : 42.3 KiB (0%)Title : English / SDHForced : NoEncoded date : UTC 2018-08-10 12:50:55Tagged date : UTC 2018-08-10 12:50:55
Text #8ID : 14Format : Timed TextCodec ID : tx3gDuration : 1 h 51 minBit rate mode : VariableBit rate : 64 b/sStream size : 52.5 KiB (0%)Title : English / SDH ColoredForced : NoEncoded date : UTC 2018-08-10 12:50:55Tagged date : UTC 2018-08-10 12:50:55

Тор: Рагнарёк 2017

Тор: Рагнарёк / Thor: Ragnarok- - -Год выхода: 2017
Страна: США
Жанр: фэнтези, боевик, приключения
Продолжительность: 02:10:30
Перевод №1: русский Профессиональный (полное дублирование) Blu-Ray EUR
Перевод №2: украинский Профессиональный (полное дублирование)
Перевод №3: русский Авторский (одноголосый, закадровый) Ю.Живов
Оригинальная дорожка: Есть
Субтитры: русские (форсированные), (полные), украинские (форсированные), английские (полные)
-Режиссер: Тайка Вайтити / Taika Waititi-В ролях: Крис Хемсворт, Том Хиддлстон, Кейт Бланшетт, Идрис Эльба, Джефф Голдблюм, Тесса Томпсон, Карл Урбан, Марк Руффало, Энтони Хопкинс, Бенедикт Камбербэтч, Тайка Вайтити и другие .-Описание: Вернувшись в Асгард в поисках таинственного врага, ведущего охоту на Камни Бесконечности, Тор обнаруживает, что действия его брата Локи, захватившего трон Асгарда, привели к приближению наиболее страшного события — Рагнарёка. По легенде это ознаменует последнюю битву Асгарда, последствием которой станет его полное уничтожение. В попытке предотвратить это событие Тору предстоит прибегнуть к помощи своего товарища из Мстителей — Халка. Вместе им предстоит столкнуться лицом к лицу со злейшим врагом всех девяти миров — огненным демоном Суртуром, целью которого является исполнение пророчества о Рагнарёке и уничтожение девяти миров .-[img]https://rating.kinopoisk.ru/822709.gif[/img] -Качество: BDRip / рип с Blu-ray disc 1080p [EUR]
Формат файла: MP4
Видео кодек: H.264
Аудио кодек: AAC
Видео: 960x402 AR:2.39 1450 kbps 23.976 fps
Аудио №1: [Russian] 2ch 48 kHz 128 kbps - [Dub] Профессиональный (полное дублирование) Blu-Ray EUR
Аудио №2: [Ukrainian] 2ch 48 kHz 128 kbps - [Dub] Профессиональный (полное дублирование)
Аудио №3: [Russian] 2ch 48 kHz 128 kbps - [VO] Авторский (одноголосый, закадровый) Ю.Живов
Аудио №4: [English] 2ch 48 kHz 128 kbps - Original
-

Logx264

avs [info]: 960x402p 1:1 @ 24000/1001 fps (cfr)
x264 [info]: using SAR=1/1
x264 [info]: using cpu capabilities: MMX2 SSE2Fast SSSE3 SSE4.2 AVX FMA3 BMI2 AVX2
x264 [info]: profile High, level 4.1
x264 [info]: frame I:2195 Avg QP:17.24 size: 54566
x264 [info]: frame P:50303 Avg QP:21.16 size: 14153
x264 [info]: frame B:135251 Avg QP:22.82 size: 4343
x264 [info]: consecutive B-frames: 5.7% 4.2% 13.7% 29.1% 18.6% 22.6% 3.3% 1.5% 1.3%
x264 [info]: mb I I16..4: 5.1% 66.2% 28.7%
x264 [info]: mb P I16..4: 1.7% 11.3% 2.9% P16..4: 33.2% 31.9% 9.1% 0.0% 0.0% skip: 9.9%
x264 [info]: mb B I16..4: 0.2% 1.6% 0.4% B16..8: 31.0% 15.1% 2.3% direct: 3.7% skip:45.7% L0:40.3% L1:44.1% BI:15.5%
x264 [info]: 8x8 transform intra:70.5% inter:63.6%
x264 [info]: direct mvs spatial:95.3% temporal:4.7%
x264 [info]: coded y,uvDC,uvAC intra: 79.5% 77.6% 44.7% inter: 17.3% 12.9% 4.4%
x264 [info]: i16 v,h,dc,p: 15% 14% 2% 69%
x264 [info]: i8 v,h,dc,ddl,ddr,vr,hd,vl,hu: 13% 8% 3% 9% 14% 13% 15% 12% 14%
x264 [info]: i4 v,h,dc,ddl,ddr,vr,hd,vl,hu: 27% 8% 4% 7% 12% 11% 12% 9% 10%
x264 [info]: i8c dc,h,v,p: 30% 29% 21% 19%
x264 [info]: Weighted P-Frames: Y:13.9% UV:9.1%
x264 [info]: ref P L0: 54.0% 12.8% 15.6% 5.7% 4.0% 3.2% 2.6% 1.8% 0.3% 0.1%
x264 [info]: ref B L0: 80.6% 9.2% 5.1% 2.0% 1.6% 1.0% 0.4%
x264 [info]: ref B L1: 95.5% 4.5%
x264 [info]: kb/s:1449.85
encoded 187749 frames, 18.53 fps, 1449.85 kb/s

ТХ/MediaInfo

GeneralComplete name : K:\Torrents\Thor Trilogy.2011-2017.BDRip.x264.960x\Thor Ragnarok.2017.BDRip.x264.960x.rip by Frost O.S.mp4Format : MPEG-4Format profile : 3GPP Release 6 GeneralCodec ID : 3gg6 (isom/3gg6/mp42)File size : 1.80 GiBDuration : 2 h 10 minOverall bit rate mode : VariableOverall bit rate : 1 971 kb/sEncoded date : UTC 2018-08-10 11:44:39Tagged date : UTC 2018-08-10 11:44:39
VideoID : 1Format : AVCFormat/Info : Advanced Video CodecFormat profile : High@L4.1Format settings : CABAC / 8 Ref FramesFormat settings, CABAC : YesFormat settings, RefFrames : 8 framesCodec ID : avc1Codec ID/Info : Advanced Video CodingDuration : 2 h 10 minBit rate : 1 450 kb/sMaximum bit rate : 6 048 kb/sWidth : 960 pixelsHeight : 402 pixelsDisplay aspect ratio : 2.40:1Frame rate mode : ConstantFrame rate : 23.976 (24000/1001) FPSColor space : YUVChroma subsampling : 4:2:0Bit depth : 8 bitsScan type : ProgressiveBits/(Pixel*Frame) : 0.157Stream size : 1.32 GiB (74%)Writing library : x264 core 152 r2851 ba24899Encoding settings : cabac=1 / ref=8 / deblock=1:-2:-1 / analyse=0x3:0x113 / me=umh / subme=11 / psy=1 / psy_rd=0.95:0.00 / mixed_ref=1 / me_range=32 / chroma_me=1 / trellis=2 / 8x8dct=1 / cqm=0 / deadzone=21,11 / fast_pskip=0 / chroma_qp_offset=-2 / threads=6 / lookahead_threads=1 / sliced_threads=0 / nr=0 / decimate=0 / interlaced=0 / bluray_compat=0 / constrained_intra=0 / bframes=8 / b_pyramid=2 / b_adapt=2 / b_bias=0 / direct=3 / weightb=1 / open_gop=0 / weightp=2 / keyint=250 / keyint_min=23 / scenecut=40 / intra_refresh=0 / rc=2pass / mbtree=0 / bitrate=1450 / ratetol=1.0 / qcomp=0.70 / qpmin=0 / qpmax=69 / qpstep=4 / cplxblur=20.0 / qblur=0.5 / ip_ratio=1.40 / pb_ratio=1.30 / aq=2:0.70Encoded date : UTC 2018-08-09 18:10:58Tagged date : UTC 2018-08-10 11:45:13Color range : LimitedColor primaries : BT.709Transfer characteristics : BT.709Matrix coefficients : BT.709
Audio #1ID : 2Format : AACFormat/Info : Advanced Audio CodecFormat profile : LCCodec ID : mp4a-40-2Duration : 2 h 10 minBit rate mode : VariableBit rate : 128 kb/sMaximum bit rate : 134 kb/sChannel(s) : 2 channelsChannel positions : Front: L RSampling rate : 48.0 kHzFrame rate : 46.875 FPS (1024 SPF)Compression mode : LossyStream size : 119 MiB (6%)Title : Russian / Dub, Blu-Ray EUREncoded date : UTC 2018-08-10 10:51:19Tagged date : UTC 2018-08-10 11:45:13
Audio #2ID : 3Format : AACFormat/Info : Advanced Audio CodecFormat profile : LCCodec ID : mp4a-40-2Duration : 2 h 10 minBit rate mode : VariableBit rate : 128 kb/sMaximum bit rate : 133 kb/sChannel(s) : 2 channelsChannel positions : Front: L RSampling rate : 48.0 kHzFrame rate : 46.875 FPS (1024 SPF)Compression mode : LossyStream size : 119 MiB (6%)Title : Ukrainian / DubEncoded date : UTC 2018-08-10 10:55:15Tagged date : UTC 2018-08-10 11:45:13
Audio #3ID : 4Format : AACFormat/Info : Advanced Audio CodecFormat profile : LCCodec ID : mp4a-40-2Duration : 2 h 10 minBit rate mode : VariableBit rate : 128 kb/sMaximum bit rate : 135 kb/sChannel(s) : 2 channelsChannel positions : Front: L RSampling rate : 48.0 kHzFrame rate : 46.875 FPS (1024 SPF)Compression mode : LossyStream size : 119 MiB (6%)Title : Russian / VO, ZhuvovEncoded date : UTC 2018-08-10 10:59:09Tagged date : UTC 2018-08-10 11:45:13
Audio #4ID : 5Format : AACFormat/Info : Advanced Audio CodecFormat profile : LCCodec ID : mp4a-40-2Duration : 2 h 10 minBit rate mode : VariableBit rate : 128 kb/sMaximum bit rate : 135 kb/sChannel(s) : 2 channelsChannel positions : Front: L RSampling rate : 48.0 kHzFrame rate : 46.875 FPS (1024 SPF)Compression mode : LossyStream size : 119 MiB (6%)Title : English / OriginalEncoded date : UTC 2018-08-10 10:46:53Tagged date : UTC 2018-08-10 11:45:13
Text #1ID : 6Format : Timed TextCodec ID : tx3gDuration : 2 h 10 minBit rate mode : VariableBit rate : 0 b/sStream size : 228 Bytes (0%)Title : Russian / ForcedForced : NoEncoded date : UTC 2018-08-10 11:45:13Tagged date : UTC 2018-08-10 11:45:13
Text #2ID : 7Format : Timed TextCodec ID : tx3gDuration : 2 h 10 minBit rate mode : VariableBit rate : 82 b/sStream size : 78.2 KiB (0%)Title : Russian / FullForced : NoEncoded date : UTC 2018-08-10 11:45:13Tagged date : UTC 2018-08-10 11:45:13
Text #3ID : 8Format : Timed TextCodec ID : tx3gDuration : 2 h 10 minBit rate mode : VariableBit rate : 0 b/sStream size : 260 Bytes (0%)Title : Ukrainian / ForcedForced : NoEncoded date : UTC 2018-08-10 11:45:13Tagged date : UTC 2018-08-10 11:45:13
Text #4ID : 9Format : Timed TextCodec ID : tx3gDuration : 2 h 10 minBit rate mode : VariableBit rate : 67 b/sStream size : 63.7 KiB (0%)Title : English / FullForced : NoEncoded date : UTC 2018-08-10 11:45:13Tagged date : UTC 2018-08-10 11:45:13


[torrentc.info]_t_5595592.torrent
Торрент: Зарегистрирован ·  [ 2018-08-12 21:33 ] ·  f76bc027cb829ccbd040d7d3af7c14285684d1da

26 KB

Статус: проверено
Скачан: 0 раз
Размер: 5.01 GB
Оценка: 
(Голосов: 0)
Сказали спасибо: 0  Спасибо
Похожие темы
[Профиль]    [ЛС]
Показать сообщения:    
Ответить на тему

Текущее время: Сегодня 03:15

Часовой пояс: GMT + 7



Вы не можете начинать темы
Вы не можете отвечать на сообщения
Вы не можете редактировать свои сообщения
Вы не можете удалять свои сообщения
Вы не можете голосовать в опросах
Вы не можете прикреплять файлы к сообщениям
Вы можете скачивать файлы