(Modern Classical, Musique Concrète, Experimental) [CD] Piotr Kurek - Lectures - 2009, FLAC (tracks+.cue), lossless

Ответить на тему
Статистика раздачи [Обновить пиров]
Размер:  193 MB   |    Зарегистрирован:  3 месяца 7 дней   |    Скачан:  0 раз

Полного источника не было: Никогда

 
   
 
 
 
Автор Сообщение

torrentc.info

Создавать темы 12-Авг-2018 12:10

[Цитировать]

Piotr Kurek / Lectures
[img=right]https://i100.fastpic.ru/big/2018/0811/46/93ba93dc77...226346.jpg[/img]
Жанр: Modern Classical, Musique Concrète, Experimental
Носитель: CD
Страна-производитель диска (релиза): Portugal
Год издания: 2009
Издатель (лейбл): Crónica ‎
Номер по каталогу: Crónica 042~2009
Аудиокодек: FLAC (*.flac)
Тип рипа: tracks+.cue
Битрейт аудио: lossless
Источник (релизер): what.cd
Наличие сканов в содержимом раздачи: нет
Треклист:
1 Part I 4:01
2 Ways Of Making Sounds 2:18
3 No Mistake 5:36
4 Part II 1:22
5 Cardboard Cups 1:33
6 Tripartite 7:18
7 1963 3:31
8 Questions 1:50
9 Go Up 6:01
10 Players 6:00

Лог создания рипа

X Lossless Decoder version 20100904 (120.7)
XLD extraction logfile from 2010-09-06 07:18:14 +0100
Piotr Kurek / Lectures
Used drive : TSSTcorp CD/DVDW SH-S182M (revision SB03)
Use cdparanoia mode : YES (CDParanoia III 10.2 engine)Disable audio cache : OK for the drive with cache less than 2750KBMake use of C2 pointers : NORead offset correction : 6Max retry count : 100Gap status : Analyzed, Appended
TOC of the extracted CD Track | Start | Length | Start sector | End sector --------------------------------------------------------- 1 | 00:00:00 | 04:01:23 | 0 | 18097 2 | 04:01:23 | 02:17:55 | 18098 | 28427 3 | 06:19:03 | 05:36:14 | 28428 | 53641 4 | 11:55:17 | 01:21:46 | 53642 | 59762 5 | 13:16:63 | 01:33:00 | 59763 | 66737 6 | 14:49:63 | 07:17:48 | 66738 | 99560 7 | 22:07:36 | 03:30:36 | 99561 | 115346 8 | 25:37:72 | 01:49:67 | 115347 | 123588 9 | 27:27:64 | 06:00:72 | 123589 | 150660 10 | 33:28:61 | 06:02:16 | 150661 | 177826
All Tracks Album gain : -4.65 dB Peak : 0.970795
Track 01 Filename : /Volumes/1.5/Uploads/inProgress/_______music/Piotr Kurek-2009-Lectures/01 - Part I.flac Pre-gap length : 00:02:00
Track gain : -1.94 dB Peak : 0.723938 CRC32 hash (test run) : 2FB05DCF CRC32 hash : 2FB05DCF CRC32 hash (skip zero) : C47954C5 AccurateRip signature : 26244FE1 ->Accurately ripped! (confidence 1) Statistics Read error : 0 Skipped (treated as error) : 0 Edge jitter error (maybe fixed) : 0 Atom jitter error (maybe fixed) : 0 Drift error (maybe fixed) : 0 Dropped bytes error (maybe fixed) : 0 Duplicated bytes error (maybe fixed) : 0 Inconsistency in error sectors : 0
Track 02 Filename : /Volumes/1.5/Uploads/inProgress/_______music/Piotr Kurek-2009-Lectures/02 - Ways Of Making Sounds.flac
Track gain : 4.05 dB Peak : 0.804626 CRC32 hash (test run) : 54C7DD3C CRC32 hash : 54C7DD3C CRC32 hash (skip zero) : A554A502 AccurateRip signature : D536CF57 ->Accurately ripped! (confidence 1) Statistics Read error : 0 Skipped (treated as error) : 0 Edge jitter error (maybe fixed) : 0 Atom jitter error (maybe fixed) : 0 Drift error (maybe fixed) : 0 Dropped bytes error (maybe fixed) : 0 Duplicated bytes error (maybe fixed) : 0 Inconsistency in error sectors : 0
Track 03 Filename : /Volumes/1.5/Uploads/inProgress/_______music/Piotr Kurek-2009-Lectures/03 - No Mistake.flac
Track gain : -2.78 dB Peak : 0.908661 CRC32 hash (test run) : 7F6C820A CRC32 hash : 7F6C820A CRC32 hash (skip zero) : 359610D0 AccurateRip signature : C6819D07 ->Accurately ripped! (confidence 1) Statistics Read error : 0 Skipped (treated as error) : 0 Edge jitter error (maybe fixed) : 1 Atom jitter error (maybe fixed) : 0 Drift error (maybe fixed) : 0 Dropped bytes error (maybe fixed) : 1 Duplicated bytes error (maybe fixed) : 0 Inconsistency in error sectors : 0
Track 04 Filename : /Volumes/1.5/Uploads/inProgress/_______music/Piotr Kurek-2009-Lectures/04 - Part II.flac
Track gain : -1.91 dB Peak : 0.970428 CRC32 hash (test run) : 97C514E3 CRC32 hash : 97C514E3 CRC32 hash (skip zero) : 37D61F7D AccurateRip signature : B66D8025 ->Accurately ripped! (confidence 1) Statistics Read error : 0 Skipped (treated as error) : 0 Edge jitter error (maybe fixed) : 0 Atom jitter error (maybe fixed) : 0 Drift error (maybe fixed) : 0 Dropped bytes error (maybe fixed) : 0 Duplicated bytes error (maybe fixed) : 0 Inconsistency in error sectors : 0
Track 05 Filename : /Volumes/1.5/Uploads/inProgress/_______music/Piotr Kurek-2009-Lectures/05 - Cardboard Cups.flac Pre-gap length : 00:02:00
Track gain : 4.00 dB Peak : 0.697632 CRC32 hash (test run) : 727E8570 CRC32 hash : 727E8570 CRC32 hash (skip zero) : 6E98D04A AccurateRip signature : 12989E32 ->Accurately ripped! (confidence 1) Statistics Read error : 0 Skipped (treated as error) : 0 Edge jitter error (maybe fixed) : 0 Atom jitter error (maybe fixed) : 0 Drift error (maybe fixed) : 0 Dropped bytes error (maybe fixed) : 0 Duplicated bytes error (maybe fixed) : 0 Inconsistency in error sectors : 0
Track 06 Filename : /Volumes/1.5/Uploads/inProgress/_______music/Piotr Kurek-2009-Lectures/06 - Tripartite.flac
Track gain : -6.87 dB Peak : 0.970795 CRC32 hash (test run) : E80B722D CRC32 hash : E80B722D CRC32 hash (skip zero) : 8185590A AccurateRip signature : B98A36D2 ->Accurately ripped! (confidence 1) Statistics Read error : 0 Skipped (treated as error) : 0 Edge jitter error (maybe fixed) : 1 Atom jitter error (maybe fixed) : 0 Drift error (maybe fixed) : 0 Dropped bytes error (maybe fixed) : 1 Duplicated bytes error (maybe fixed) : 0 Inconsistency in error sectors : 0
Track 07 Filename : /Volumes/1.5/Uploads/inProgress/_______music/Piotr Kurek-2009-Lectures/07 - 1963.flac Pre-gap length : 00:02:00
Track gain : -1.97 dB Peak : 0.969604 CRC32 hash (test run) : 5C92F7D8 CRC32 hash : 5C92F7D8 CRC32 hash (skip zero) : D5E2C9C5 AccurateRip signature : 01975349 ->Accurately ripped! (confidence 1) Statistics Read error : 0 Skipped (treated as error) : 0 Edge jitter error (maybe fixed) : 0 Atom jitter error (maybe fixed) : 0 Drift error (maybe fixed) : 0 Dropped bytes error (maybe fixed) : 0 Duplicated bytes error (maybe fixed) : 0 Inconsistency in error sectors : 0
Track 08 Filename : /Volumes/1.5/Uploads/inProgress/_______music/Piotr Kurek-2009-Lectures/08 - Questions.flac
Track gain : 3.55 dB Peak : 0.745453 CRC32 hash (test run) : A99DCF4A CRC32 hash : A99DCF4A CRC32 hash (skip zero) : 07698500 AccurateRip signature : 0610B235 ->Accurately ripped! (confidence 1) Statistics Read error : 0 Skipped (treated as error) : 0 Edge jitter error (maybe fixed) : 0 Atom jitter error (maybe fixed) : 0 Drift error (maybe fixed) : 0 Dropped bytes error (maybe fixed) : 0 Duplicated bytes error (maybe fixed) : 0 Inconsistency in error sectors : 0
Track 09 Filename : /Volumes/1.5/Uploads/inProgress/_______music/Piotr Kurek-2009-Lectures/09 - Go Up.flac
Track gain : -4.55 dB Peak : 0.970764 CRC32 hash (test run) : EDA98CD7 CRC32 hash : EDA98CD7 CRC32 hash (skip zero) : 2521EB00 AccurateRip signature : 06016721 ->Accurately ripped! (confidence 1) Statistics Read error : 0 Skipped (treated as error) : 0 Edge jitter error (maybe fixed) : 1 Atom jitter error (maybe fixed) : 0 Drift error (maybe fixed) : 0 Dropped bytes error (maybe fixed) : 1 Duplicated bytes error (maybe fixed) : 1 Inconsistency in error sectors : 0
Track 10 Filename : /Volumes/1.5/Uploads/inProgress/_______music/Piotr Kurek-2009-Lectures/10 - Players.flac Pre-gap length : 00:03:00
Track gain : -5.54 dB Peak : 0.970642 CRC32 hash (test run) : 47011720 CRC32 hash : 47011720 CRC32 hash (skip zero) : BD8525AD AccurateRip signature : AB9D6444 ->Accurately ripped! (confidence 1) Statistics Read error : 0 Skipped (treated as error) : 0 Edge jitter error (maybe fixed) : 0 Atom jitter error (maybe fixed) : 0 Drift error (maybe fixed) : 0 Dropped bytes error (maybe fixed) : 0 Duplicated bytes error (maybe fixed) : 0 Inconsistency in error sectors : 0
No errors occurred
End of status report

Содержание индексной карты (.CUE)

TITLE "Lectures"PERFORMER "Piotr Kurek"REM GENRE "Experimental"REM DATE 2009REM DISCID 8809430AFILE "01 - Part I.wav" WAVE TRACK 01 AUDIO TITLE "Part I" SONGWRITER "Piotr Kurek" INDEX 01 00:00:00FILE "02 - Ways Of Making Sounds.wav" WAVE TRACK 02 AUDIO TITLE "Ways Of Making Sounds" SONGWRITER "Piotr Kurek" INDEX 01 00:00:00FILE "03 - No Mistake.wav" WAVE TRACK 03 AUDIO TITLE "No Mistake" SONGWRITER "Piotr Kurek" INDEX 01 00:00:00FILE "04 - Part II.wav" WAVE TRACK 04 AUDIO TITLE "Part II" SONGWRITER "Piotr Kurek" INDEX 01 00:00:00 TRACK 05 AUDIO TITLE "Cardboard Cups" SONGWRITER "Piotr Kurek" INDEX 00 01:19:46FILE "05 - Cardboard Cups.wav" WAVE INDEX 01 00:00:00FILE "06 - Tripartite.wav" WAVE TRACK 06 AUDIO TITLE "Tripartite" SONGWRITER "Piotr Kurek" INDEX 01 00:00:00 TRACK 07 AUDIO TITLE "1963" SONGWRITER "Piotr Kurek" INDEX 00 07:15:48FILE "07 - 1963.wav" WAVE INDEX 01 00:00:00FILE "08 - Questions.wav" WAVE TRACK 08 AUDIO TITLE "Questions" SONGWRITER "Piotr Kurek" INDEX 01 00:00:00FILE "09 - Go Up.wav" WAVE TRACK 09 AUDIO TITLE "Go Up" SONGWRITER "Piotr Kurek" INDEX 01 00:00:00 TRACK 10 AUDIO TITLE "Players" SONGWRITER "Piotr Kurek" INDEX 00 05:57:72FILE "10 - Players.wav" WAVE INDEX 01 00:00:00

Лог проверки качества

AUDIOCHECKER v2.0 beta (build 457) - by Dester - opdester@freemail.hu~~~~~~~~~~~~~~~~~~~~~~~~~~~~~~~~~~-=== DO NOT EDIT THIS FILE! ===-
Path: ...\Piotr Kurek-2009-Lectures
01 -=- 01 - Part I.flac -=- CDDA (100%)02 -=- 02 - Ways Of Making Sounds.flac -=- CDDA (99%)03 -=- 03 - No Mistake.flac -=- CDDA (100%)04 -=- 04 - Part II.flac -=- CDDA (99%)05 -=- 05 - Cardboard Cups.flac -=- CDDA (100%)06 -=- 06 - Tripartite.flac -=- CDDA (100%)07 -=- 07 - 1963.flac -=- CDDA (99%)08 -=- 08 - Questions.flac -=- CDDA (100%)09 -=- 09 - Go Up.flac -=- CDDA (99%)10 -=- 10 - Players.flac -=- CDDA (100%)
Summary 99,60% CDDA
120726212


[torrentc.info]_t_5599211.torrent
Торрент: Зарегистрирован ·  [ 2018-08-12 12:10 ] ·  28a10d22800deeb97b36ef153aacbcdcd37a1cd8

16 KB

Статус: проверено
Скачан: 0 раз
Размер: 193 MB
Оценка: 
(Голосов: 0)
Сказали спасибо: 0  Спасибо
Похожие темы
[Профиль]    [ЛС]
Показать сообщения:    
Ответить на тему

Текущее время: Сегодня 03:27

Часовой пояс: GMT + 7



Вы не можете начинать темы
Вы не можете отвечать на сообщения
Вы не можете редактировать свои сообщения
Вы не можете удалять свои сообщения
Вы не можете голосовать в опросах
Вы не можете прикреплять файлы к сообщениям
Вы можете скачивать файлы