Великолепная афера / Matchstick Men (Ридли Скотт / Ridley Scott) [2003, США, комедия, криминал, триллер, HDRip] AVO (Юрий Сербин)

Ответить на тему
Статистика раздачи [Обновить пиров]
Размер:  1.47 GB   |    Зарегистрирован:  2 месяца 11 дней   |    Скачан:  0 раз

Полного источника не было: Никогда

 
   
 
 
 
Автор Сообщение

torrentc.info

Создавать темы 11-Авг-2018 22:00

[Цитировать]

Великолепная афера / Matchstick Men
Страна: США
Жанр: комедия, криминал, триллер
Год выхода: 2003
Продолжительность: 01:56:09
Перевод: Авторский (одноголосый закадровый) Юрий Сербин
Субтитры: нет
Режиссер: Ридли Скотт / Ridley Scott
В ролях: Николас Кейдж, Сэм Рокуэлл, Элисон Ломан, Брюс Олтмен, Брюс МакГилл, Дженни О’Хара, Стив Истин, Бет Грант, Шейла Келли
Описание: Рой Веллер – опытный и умелый жулик, помешанный на чистоте, порядке и планировании, а также имеющий некоторые проблемы с психикой. Его напарник - Фрэнк Меркер – тоже парень матёрый, оказывающий приятелю помощь в разводе людей на деньги. Тандем работает вполне успешно, обирая доверчивых простофиль без особого напряга на сотни, а то и тысячи долларов. «Бизнес» налажен, а вот личная жизнь – не очень. Кроме того, Фрэнк настаивает, чтобы Рой походил на психотерапию, ведь это поможет лучше себя контролировать и не испытывать проблем в дальнейшем. Именно благодаря курсам Веллер узнаёт о существовании дочери-подростка Анджелы. Появление девушки сбивает Роя с толка, однако со временем он одобряет перемены, почувствовав привязанность к единственному родному человеку. Анджела принимает занятие отца без осуждения и даже просит Фрэнка и Роя обучать её. Протеже делает успехи, только вот всё ли чисто в такой, на первый взгляд, идеальной истории...?

Сэмпл: http://multi-up.com/1206002
Качество видео: HDRip (Источник: Torrentc BDRip 1080p)
Формат файла: AVI
Видео: XviD 73, 720x304, (2,35:1), 23,976 fps, 1615 Кбит/с, 8 бит, 0.30 bit/pixel
Аудио: Русский (АС3, 2 ch (Front: L R), 48,0 KHz, 192 Kbps

MediaInfo

ОбщееПолное имя : H:\Фильмы на трекер\Великолепная афера (комедия, криминал, триллер 2003 год).aviФормат файла : AVIФормат файла/Информация : Audio Video InterleaveРазмер файла : 1,47 ГбайтПродолжительность : 1 ч. 56 м.Общий поток : 1816 Кбит/секПрограмма кодирования : VirtualDubMod 1.5.10.2 (build 2540/release)Библиотека кодирования : VirtualDubMod build 2540/release
ВидеоИдентификатор : 0Формат файла : MPEG-4 VisualПрофиль формата : Advanced Simple@L5Параметр BVOP формата : 2Параметр QPel формата : НетПараметр GMC формата : Без точки переходаПараметр матрицы формата : ВыборочнаяИдентификатор кодека : XVIDИдентификатор кодека/Подсказка : XviDПродолжительность : 1 ч. 56 м.Битрейт : 1615 Кбит/секШирина : 720 пикселейВысота : 304 пикселяСоотношение сторон : 2,35:1Частота кадров : 23,976 (23976/1000) кадра/секЦветовое пространство : YUVСубдискретизация насыщенности : 4:2:0Битовая глубина : 8 битТип развёртки : ПрогрессивнаяМетод сжатия : С потерямиБит/(Пиксели*Кадры) : 0.308Размер потока : 1,31 Гбайт (89%)Библиотека кодирования : XviD 73
АудиоИдентификатор : 1Формат файла : AC-3Формат файла/Информация : Audio Coding 3Расширение режима : CM (complete main)Параметр Endianness формата : BigИдентификатор кодека : 2000Продолжительность : 1 ч. 56 м.Вид битрейта : ПостоянныйБитрейт : 192 Кбит/секКаналы : 2 каналаРасположение каналов : Front: L RЧастота : 48,0 КГцЧастота кадров : 31,250 кадров/сек (1536 spf)Метод сжатия : С потерямиРазмер потока : 160 Мбайт (11%)Выравнивание : Разделение по промежуткамПродолжительность промежутка : 42 мс. (1,00 видеокадр)Время предзагрузки промежутка : 500 мс.

Скриншот c названием фильма

Скриншоты



[torrentc.info]_t_5599147.torrent
Торрент: Зарегистрирован ·  [ 2018-08-11 21:59 ] ·  0a10bff326779f5470dae9171bfc9658be959ccb

15 KB

Статус: проверено
Скачан: 0 раз
Размер: 1.47 GB
Оценка: 
(Голосов: 0)
Сказали спасибо: 0  Спасибо
Похожие темы
[Профиль]    [ЛС]
Показать сообщения:    
Ответить на тему

Текущее время: Сегодня 05:55

Часовой пояс: GMT + 7



Вы не можете начинать темы
Вы не можете отвечать на сообщения
Вы не можете редактировать свои сообщения
Вы не можете удалять свои сообщения
Вы не можете голосовать в опросах
Вы не можете прикреплять файлы к сообщениям
Вы можете скачивать файлы