Ниндзя-8. Огненное воинство / Ниндзя - 8: Ниндзя и войны огня / Огненное воинство / Ninja 8: Warriors of Fire / Ninja and the Warriors of Fire (Годфри Хо / Godfrey Ho) [1987, Гонконг, боевик, VHSRip] VO (МладоКашкин)

Ответить на тему
Статистика раздачи [Обновить пиров]
Размер:  1.37 GB   |    Зарегистрирован:  3 месяца 5 дней   |    Скачан:  0 раз

Полного источника не было: Никогда

 
   
 
 
 
Автор Сообщение

torrentc.info

Создавать темы 10-Авг-2018 20:43

[Цитировать]

Ниндзя-8. Огненное воинство / Ниндзя - 8: Ниндзя и войны огня / Огненное воинство / Ninja 8: Warriors of Fire / Ninja and the Warriors of Fire
Страна: Гонконг
Жанр: боевик
Год выхода: 1987
Продолжительность: 01:25:47
Перевод: Одноголосый закадровый МладоКашкин
Субтитры: нет
Режиссер: Годфри Хо / Godfrey Ho
В ролях: Питер Дэвис, Джефф Хьюстон, Глен Карсон, Кристин Уоррен, Джули Люк, Джонатан Ижгар, Стюарт Смит, Джон Вилфорд
Описание: Аннотация от alenavova
Американские фильмы про ниндзя обвиняют в непонимании мифологии, философии и культурных традиций восточных единоборств. И справедливо обвиняют! Но до какого же убожества часто доходят "свои", восточные "ниндзюцу"!.. "Седьмая серия - тут можно поесть, потому что не видел предыдущие шесть". В данном случае видеть предыдущие семь серий (а это именно 8-й фильм сериала "Ниндзя") необязательно, - можно смотреть с любого места. Итак: Робин собирается жениться на Мэри. У Робина есть некая секретная светокопия, которой хотят завладеть "черные ниндзя", для чего похищают Робина и убивают Мэри. Сестра Мэри Дженни усердно тренируется и делает себе татуировку, отчего становится "белой ниндзя". Месть "белой" женщины-ниндзя "черным" будет, сами понимаете, ужасна!
Доп. информация: За Источник: Torrentc VHS спасибо RoxMarty

Сэмпл: https://yadi.sk/i/t7yewHu_3a2vNN
Качество видео: VHSRip
Формат файла: AVI
Видео: 704x528 (1.33:1), 25 fps, XviD build 73 ~2077 kbps avg, 0.22 bit/pixel
Аудио: 48 kHz, AC3 Dolby Digital, 2/0 (L,R) ch, ~192 kbps

MediaInfo

Ниндзя и воины огня (Ninja 8 Warriors of fire) {by RoxMarty}.aviFormat : AVIFormat/Info : Audio Video InterleaveFile size : 1.37 GiBDuration : 1 h 25 minOverall bit rate : 2 279 kb/sMovie name : Ниндзя и воины огня (Ninja 8 Warriors of fire) {by RoxMarty}Director : by RoxMartyWriting application : VirtualDubMod 1.5.10.3 | www.virtualdub-fr.org || (build 2550/release)Copyright : Edich2Comment : Torrentc
VideoID : 0Format : MPEG-4 VisualFormat profile : Advanced Simple@L5Format settings : BVOP2 / Custom MatrixFormat settings, BVOP : 2Format settings, QPel : NoFormat settings, GMC : No warppointsFormat settings, Matrix : CustomCodec ID : XVIDCodec ID/Hint : XviDDuration : 1 h 25 minBit rate : 2 078 kb/sWidth : 704 pixelsHeight : 528 pixelsDisplay aspect ratio : 4:3Frame rate : 25.000 FPSColor space : YUVChroma subsampling : 4:2:0Bit depth : 8 bitsScan type : ProgressiveCompression mode : LossyBits/(Pixel*Frame) : 0.224Stream size : 1.25 GiB (91%)Writing library : XviD 73
AudioID : 1Format : AC-3Format/Info : Audio Coding 3Codec ID : 2000Duration : 1 h 25 minBit rate mode : ConstantBit rate : 192 kb/sChannel(s) : 2 channelsChannel positions : Front: L RSampling rate : 48.0 kHzFrame rate : 31.250 FPS (1536 SPF)Bit depth : 16 bitsCompression mode : LossyStream size : 118 MiB (8%)Alignment : Split accross interleavesInterleave, duration : 40 ms (1.00 video frame)Interleave, preload duratio : 500 msService kind : Complete Main

Скриншоты




[torrentc.info]_t_5597971.torrent
Торрент: Зарегистрирован ·  [ 2018-08-10 20:43 ] ·  96a9797f7b0b36bdd129a44b29e6554576f8706f

14 KB

Статус: проверено
Скачан: 0 раз
Размер: 1.37 GB
Оценка: 
(Голосов: 0)
Сказали спасибо: 0  Спасибо
Похожие темы
[Профиль]    [ЛС]
Показать сообщения:    
Ответить на тему

Текущее время: Сегодня 12:30

Часовой пояс: GMT + 7



Вы не можете начинать темы
Вы не можете отвечать на сообщения
Вы не можете редактировать свои сообщения
Вы не можете удалять свои сообщения
Вы не можете голосовать в опросах
Вы не можете прикреплять файлы к сообщениям
Вы можете скачивать файлы