(Score) Обезьяна-убийца / Обезьяний оскал: эксперимент со страхом / Обезьяньи проделки / Monkey Shines: An Experiment in Fear (by David Shire) - 2018 (1988), FLAC (tracks+.cue), lossless

Ответить на тему
Статистика раздачи [Обновить пиров]
Размер:  426 MB   |    Зарегистрирован:  3 месяца 7 дней   |    Скачан:  0 раз

Полного источника не было: Никогда

 
   
 
 
 
Автор Сообщение

torrentc.info

Создавать темы 09-Авг-2018 20:15

[Цитировать]

Обезьяна-убийца / Обезьяний оскал: эксперимент со страхом / Обезьяньи проделки /
Monkey Shines: An Experiment in Fear
Жанр: Score
Композитор: David Shire
Год выхода диска: 2018
Год выхода фильма: 1988
Страна-производитель диска: EU
Издатель (лейбл): Music Box Records
Номер по каталогу: MBR-135
Аудиокодек: FLAC (*.flac)
Тип рипа: tracks+.cue
Битрейт аудио: lossless
Продолжительность: 01:03:55
Источник: собственный рип
Наличие сканов в содержимом раздачи: да, 600 dpi, jpg
Limited edition of 1000 copies

Треклист:

1. Prologue / Main Title (3:35)2. Operating Room (1:10)3. Homecoming (1:08)4. Geoff's Lab (1:08)5. Geoff & Allan / Geoff to Burbage (0:57)6. Suicide Attempt (0:40)7. Melanie (1:14)8. Fetch Montage (1:59)9. Shaving Scene (1:33)10. Fishing (0:59)11. Is That You, Burbage? / Ella Freaks (1:28)12. Drowning Rat / Parakeet Attack (1:07)13. Get Rid of That Bird (1:59)14. Science Is Measurement (1:41)15. He Deserved to Die / Monkey Vision I (1:37)16. Geoff in Attic / That Son of a Bitch (2:42)17. Blood Kiss (1:34)18. There Was a Fire / Ella Dragged Away (0:53)19. Campground / Bedtime (3:19)20. You Want It / Let's Tune In (3:00)21. Monkey Vision II (0:54)22. She's Filling Me Up (1:02)23. Mother, Mother (1:48)24. Lab Attack (0:40)25. Mother Snuffer (1:46)26. Geoff Looks For Mom / I Killed Them (1:42)27. Ella Attacks Geoff (1:41)28. Answer the Telephone (1:59)29. Geoff's Death (2:12)30. Lights Out (1:08)31. Let's Have Music (1:52)32. Force Feeding (1:34)33. Monkey Vision Ultimo (0:36)34. Allan's Agony (3:56)35. Liebestod (0:53)36. Surgery (0:59)37. Let's Go Fishing (0:59)38. Shock Ending (Unused) (0:26)39. End Credits (2:59)
BONUS TRACK:40. Let's Go Fishing (Alternate Ending) (1:06)

Лог создания рипа

Exact Audio Copy V1.3 from 2. September 2016
EAC extraction logfile from 27. July 2018, 22:00
David Shire / Monkey Shines
Used drive : ATAPI iHBS312 2 Adapter: 1 ID: 1
Read mode : SecureUtilize accurate stream : YesDefeat audio cache : YesMake use of C2 pointers : No
Read offset correction : 6Overread into Lead-In and Lead-Out : NoFill up missing offset samples with silence : YesDelete leading and trailing silent blocks : NoNull samples used in CRC calculations : YesUsed interface : Native Win32 interface for Win NT & 2000Gap handling : Appended to previous track
Used output format : User Defined EncoderSelected bitrate : 1024 kBit/sQuality : HighAdd ID3 tag : NoCommand line compressor : C:\Program Files\Exact Audio Copy\Flac\flac.exeAdditional command line options : -V -8 -T "Genre=%genre%" -T "Artist=%artist%" -T "Title=%title%" -T "Album=%albumtitle%" -T "Date=%year%" -T "Tracknumber=%tracknr%" -T "Comment=%comment%" %source%
TOC of the extracted CD
Track | Start | Length | Start sector | End sector --------------------------------------------------------- 1 | 0:00.00 | 3:37.44 | 0 | 16318 2 | 3:37.44 | 1:12.67 | 16319 | 21785 3 | 4:50.36 | 1:10.26 | 21786 | 27061 4 | 6:00.62 | 1:10.67 | 27062 | 32378 5 | 7:11.54 | 0:59.21 | 32379 | 36824 6 | 8:11.00 | 0:42.34 | 36825 | 40008 7 | 8:53.34 | 1:16.51 | 40009 | 45759 8 | 10:10.10 | 2:01.01 | 45760 | 54835 9 | 12:11.11 | 1:35.49 | 54836 | 62009 10 | 13:46.60 | 1:01.63 | 62010 | 66647 11 | 14:48.48 | 1:30.56 | 66648 | 73453 12 | 16:19.29 | 1:09.14 | 73454 | 78642 13 | 17:28.43 | 2:01.72 | 78643 | 87789 14 | 19:30.40 | 1:43.15 | 87790 | 95529 15 | 21:13.55 | 1:39.70 | 95530 | 103024 16 | 22:53.50 | 2:44.07 | 103025 | 115331 17 | 25:37.57 | 1:36.01 | 115332 | 122532 18 | 27:13.58 | 0:55.34 | 122533 | 126691 19 | 28:09.17 | 3:21.14 | 126692 | 141780 20 | 31:30.31 | 3:02.60 | 141781 | 155490 21 | 34:33.16 | 0:56.14 | 155491 | 159704 22 | 35:29.30 | 1:04.50 | 159705 | 164554 23 | 36:34.05 | 1:50.57 | 164555 | 172861 24 | 38:24.62 | 0:42.63 | 172862 | 176074 25 | 39:07.50 | 1:48.19 | 176075 | 184193 26 | 40:55.69 | 1:44.21 | 184194 | 192014 27 | 42:40.15 | 1:43.39 | 192015 | 199778 28 | 44:23.54 | 2:01.59 | 199779 | 208912 29 | 46:25.38 | 2:14.01 | 208913 | 218963 30 | 48:39.39 | 1:10.48 | 218964 | 224261 31 | 49:50.12 | 1:54.34 | 224262 | 232845 32 | 51:44.46 | 1:36.54 | 232846 | 240099 33 | 53:21.25 | 0:38.10 | 240100 | 242959 34 | 53:59.35 | 3:58.14 | 242960 | 260823 35 | 57:57.49 | 0:55.23 | 260824 | 264971 36 | 58:52.72 | 1:01.20 | 264972 | 269566 37 | 59:54.17 | 1:01.66 | 269567 | 274207 38 | 60:56.08 | 0:28.30 | 274208 | 276337 39 | 61:24.38 | 3:02.21 | 276338 | 290008 40 | 64:26.59 | 1:06.29 | 290009 | 294987
Track 1
Filename F:\torrent\Monkey Shines_David Shire\score\01. David Shire - Prologue , Main Title.wav
Pre-gap length 0:00:02.00
Peak level 98.1 % Extraction speed 5.0 X Track quality 100.0 % Test CRC 346B5F2C Copy CRC 346B5F2C Accurately ripped (confidence 2) [B3CC7101] (AR v2) Copy OK
Track 2
Filename F:\torrent\Monkey Shines_David Shire\score\02. David Shire - Operating Room.wav
Pre-gap length 0:00:02.00
Peak level 20.1 % Extraction speed 4.2 X Track quality 100.0 % Test CRC B3DE78EA Copy CRC B3DE78EA Accurately ripped (confidence 2) [867B8F8D] (AR v2) Copy OK
Track 3
Filename F:\torrent\Monkey Shines_David Shire\score\03. David Shire - Homecoming.wav
Pre-gap length 0:00:02.00
Peak level 23.3 % Extraction speed 2.8 X Track quality 99.8 % Test CRC B7462FB4 Copy CRC B7462FB4 Accurately ripped (confidence 2) [8A071633] (AR v2) Copy OK
Track 4
Filename F:\torrent\Monkey Shines_David Shire\score\04. David Shire - Geoff's Lab.wav
Pre-gap length 0:00:02.00
Peak level 29.1 % Extraction speed 4.3 X Track quality 100.0 % Test CRC 8F55A602 Copy CRC 8F55A602 Accurately ripped (confidence 2) [37958985] (AR v2) Copy OK
Track 5
Filename F:\torrent\Monkey Shines_David Shire\score\05. David Shire - Geoff & Allan , Geoff to Burbage.wav
Pre-gap length 0:00:02.00
Peak level 27.8 % Extraction speed 4.2 X Track quality 100.0 % Test CRC E61D599B Copy CRC E61D599B Accurately ripped (confidence 2) [7343245A] (AR v2) Copy OK
Track 6
Filename F:\torrent\Monkey Shines_David Shire\score\06. David Shire - Suicide Attempt.wav
Pre-gap length 0:00:02.00
Peak level 89.7 % Extraction speed 2.1 X Track quality 99.7 % Test CRC 78B02178 Copy CRC 78B02178 Accurately ripped (confidence 2) [9B0ACA76] (AR v2) Copy OK
Track 7
Filename F:\torrent\Monkey Shines_David Shire\score\07. David Shire - Melanie.wav
Pre-gap length 0:00:02.00
Peak level 41.3 % Extraction speed 3.2 X Track quality 99.8 % Test CRC 26A595D5 Copy CRC 26A595D5 Accurately ripped (confidence 2) [2E0F63DB] (AR v2) Copy OK
Track 8
Filename F:\torrent\Monkey Shines_David Shire\score\08. David Shire - Fetch Montage.wav
Pre-gap length 0:00:02.00
Peak level 65.5 % Extraction speed 5.5 X Track quality 100.0 % Test CRC 61BFA12B Copy CRC 61BFA12B Accurately ripped (confidence 2) [8A331F1F] (AR v2) Copy OK
Track 9
Filename F:\torrent\Monkey Shines_David Shire\score\09. David Shire - Shaving Scene.wav
Pre-gap length 0:00:02.00
Peak level 42.6 % Extraction speed 5.4 X Track quality 100.0 % Test CRC 4809177D Copy CRC 4809177D Accurately ripped (confidence 2) [4CEED35C] (AR v2) Copy OK
Track 10
Filename F:\torrent\Monkey Shines_David Shire\score\10. David Shire - Fishing.wav
Pre-gap length 0:00:02.00
Peak level 32.9 % Extraction speed 4.7 X Track quality 100.0 % Test CRC EFF7A548 Copy CRC EFF7A548 Accurately ripped (confidence 2) [26743730] (AR v2) Copy OK
Track 11
Filename F:\torrent\Monkey Shines_David Shire\score\11. David Shire - Is That You, Burbage , Ella Freaks.wav
Pre-gap length 0:00:02.00
Peak level 67.6 % Extraction speed 5.6 X Track quality 100.0 % Test CRC 6E8CAD0A Copy CRC 6E8CAD0A Accurately ripped (confidence 2) [33C782A8] (AR v2) Copy OK
Track 12
Filename F:\torrent\Monkey Shines_David Shire\score\12. David Shire - Drowning Rat , Parakeet Attack.wav
Pre-gap length 0:00:02.00
Peak level 68.4 % Extraction speed 5.2 X Track quality 100.0 % Test CRC 0DFD015E Copy CRC 0DFD015E Accurately ripped (confidence 2) [8F8BF55C] (AR v2) Copy OK
Track 13
Filename F:\torrent\Monkey Shines_David Shire\score\13. David Shire - Get Rid of That Bird.wav
Pre-gap length 0:00:02.00
Peak level 88.0 % Extraction speed 6.3 X Track quality 100.0 % Test CRC F893366F Copy CRC F893366F Accurately ripped (confidence 2) [958A80C0] (AR v2) Copy OK
Track 14
Filename F:\torrent\Monkey Shines_David Shire\score\14. David Shire - Science Is Measurement.wav
Pre-gap length 0:00:02.00
Peak level 69.3 % Extraction speed 6.1 X Track quality 100.0 % Test CRC 45DDBC6C Copy CRC 45DDBC6C Accurately ripped (confidence 2) [6CBCCD52] (AR v2) Copy OK
Track 15
Filename F:\torrent\Monkey Shines_David Shire\score\15. David Shire - He Deserved to Die , Monkey Vision I.wav
Pre-gap length 0:00:02.00
Peak level 98.3 % Extraction speed 4.5 X Track quality 99.8 % Test CRC 3AF9CD03 Copy CRC 3AF9CD03 Accurately ripped (confidence 2) [0864EE7A] (AR v2) Copy OK
Track 16
Filename F:\torrent\Monkey Shines_David Shire\score\16. David Shire - Geoff in Attic , That Son of a Bitch.wav
Pre-gap length 0:00:02.00
Peak level 62.2 % Extraction speed 7.2 X Track quality 100.0 % Test CRC B42F4AB6 Copy CRC B42F4AB6 Accurately ripped (confidence 2) [AF070688] (AR v2) Copy OK
Track 17
Filename F:\torrent\Monkey Shines_David Shire\score\17. David Shire - Blood Kiss.wav
Pre-gap length 0:00:02.00
Peak level 95.4 % Extraction speed 6.5 X Track quality 100.0 % Test CRC 36676B09 Copy CRC 36676B09 Accurately ripped (confidence 2) [634990B1] (AR v2) Copy OK
Track 18
Filename F:\torrent\Monkey Shines_David Shire\score\18. David Shire - There Was a Fire , Ella Dragged Away.wav
Pre-gap length 0:00:02.00
Peak level 22.9 % Extraction speed 3.4 X Track quality 99.8 % Test CRC 874DD4DC Copy CRC 874DD4DC Accurately ripped (confidence 2) [09DE121A] (AR v2) Copy OK
Track 19
Filename F:\torrent\Monkey Shines_David Shire\score\19. David Shire - Campground , Bedtime.wav
Pre-gap length 0:00:02.00
Peak level 93.9 % Extraction speed 6.4 X Track quality 99.9 % Test CRC 205DF4D2 Copy CRC 205DF4D2 Accurately ripped (confidence 2) [51692F5C] (AR v2) Copy OK
Track 20
Filename F:\torrent\Monkey Shines_David Shire\score\20. David Shire - You Want It , Let's Tune In.wav
Pre-gap length 0:00:02.00
Peak level 88.1 % Extraction speed 8.0 X Track quality 100.0 % Test CRC 28FEBFDB Copy CRC 28FEBFDB Accurately ripped (confidence 2) [16C225CE] (AR v2) Copy OK
Track 21
Filename F:\torrent\Monkey Shines_David Shire\score\21. David Shire - Monkey Vision II.wav
Pre-gap length 0:00:02.00
Peak level 89.6 % Extraction speed 5.9 X Track quality 100.0 % Test CRC 9582011C Copy CRC 9582011C Accurately ripped (confidence 2) [2C0F3BF2] (AR v2) Copy OK
Track 22
Filename F:\torrent\Monkey Shines_David Shire\score\22. David Shire - She's Filling Me Up.wav
Pre-gap length 0:00:02.00
Peak level 24.9 % Extraction speed 6.3 X Track quality 100.0 % Test CRC F2DC5037 Copy CRC F2DC5037 Accurately ripped (confidence 2) [A75AA46D] (AR v2) Copy OK
Track 23
Filename F:\torrent\Monkey Shines_David Shire\score\23. David Shire - Mother, Mother.wav
Pre-gap length 0:00:02.00
Peak level 68.4 % Extraction speed 7.6 X Track quality 100.0 % Test CRC 2EE5BD29 Copy CRC 2EE5BD29 Accurately ripped (confidence 2) [C5F5D4A4] (AR v2) Copy OK
Track 24
Filename F:\torrent\Monkey Shines_David Shire\score\24. David Shire - Lab Attack.wav
Pre-gap length 0:00:02.00
Peak level 88.5 % Extraction speed 3.1 X Track quality 99.7 % Test CRC 1B616678 Copy CRC 1B616678 Accurately ripped (confidence 2) [B4230121] (AR v2) Copy OK
Track 25
Filename F:\torrent\Monkey Shines_David Shire\score\25. David Shire - Mother Snuffer.wav
Pre-gap length 0:00:02.00
Peak level 95.8 % Extraction speed 7.5 X Track quality 100.0 % Test CRC 11B953B7 Copy CRC 11B953B7 Accurately ripped (confidence 2) [CA8141F0] (AR v2) Copy OK
Track 26
Filename F:\torrent\Monkey Shines_David Shire\score\26. David Shire - Geoff Looks For Mom , I Killed Them.wav
Pre-gap length 0:00:02.00
Peak level 28.8 % Extraction speed 7.7 X Track quality 100.0 % Test CRC 3DE15964 Copy CRC 3DE15964 Accurately ripped (confidence 2) [C7818C13] (AR v2) Copy OK
Track 27
Filename F:\torrent\Monkey Shines_David Shire\score\27. David Shire - Ella Attacks Geoff.wav
Pre-gap length 0:00:02.00
Peak level 97.7 % Extraction speed 7.8 X Track quality 100.0 % Test CRC 98A45E41 Copy CRC 98A45E41 Accurately ripped (confidence 2) [6C6F5420] (AR v2) Copy OK
Track 28
Filename F:\torrent\Monkey Shines_David Shire\score\28. David Shire - Answer the Telephone.wav
Pre-gap length 0:00:02.00
Peak level 75.0 % Extraction speed 8.2 X Track quality 100.0 % Test CRC 27A5AFF2 Copy CRC 27A5AFF2 Accurately ripped (confidence 2) [9E60899A] (AR v2) Copy OK
Track 29
Filename F:\torrent\Monkey Shines_David Shire\score\29. David Shire - Geoff's Death.wav
Pre-gap length 0:00:02.00
Peak level 91.0 % Extraction speed 8.6 X Track quality 100.0 % Test CRC EB60A691 Copy CRC EB60A691 Accurately ripped (confidence 2) [D0C457C6] (AR v2) Copy OK
Track 30
Filename F:\torrent\Monkey Shines_David Shire\score\30. David Shire - Lights Out.wav
Pre-gap length 0:00:02.00
Peak level 45.8 % Extraction speed 7.2 X Track quality 100.0 % Test CRC CDC7C5AF Copy CRC CDC7C5AF Accurately ripped (confidence 2) [72555A64] (AR v2) Copy OK
Track 31
Filename F:\torrent\Monkey Shines_David Shire\score\31. David Shire - Let's Have Music.wav
Pre-gap length 0:00:02.00
Peak level 18.9 % Extraction speed 8.4 X Track quality 100.0 % Test CRC 0BE60692 Copy CRC 0BE60692 Accurately ripped (confidence 2) [E0BBA052] (AR v2) Copy OK
Track 32
Filename F:\torrent\Monkey Shines_David Shire\score\32. David Shire - Force Feeding.wav
Pre-gap length 0:00:02.00
Peak level 68.4 % Extraction speed 8.2 X Track quality 100.0 % Test CRC 3C6DC29E Copy CRC 3C6DC29E Accurately ripped (confidence 2) [5B040F3C] (AR v2) Copy OK
Track 33
Filename F:\torrent\Monkey Shines_David Shire\score\33. David Shire - Monkey Vision Ultimo.wav
Pre-gap length 0:00:02.00
Peak level 98.0 % Extraction speed 5.7 X Track quality 100.0 % Test CRC A7ED4BAD Copy CRC A7ED4BAD Accurately ripped (confidence 2) [340F972D] (AR v2) Copy OK
Track 34
Filename F:\torrent\Monkey Shines_David Shire\score\34. David Shire - Allan's Agony.wav
Pre-gap length 0:00:02.00
Peak level 98.0 % Extraction speed 10.1 X Track quality 100.0 % Test CRC B41921A2 Copy CRC B41921A2 Accurately ripped (confidence 2) [66EEA8C6] (AR v2) Copy OK
Track 35
Filename F:\torrent\Monkey Shines_David Shire\score\35. David Shire - Liebestod.wav
Pre-gap length 0:00:02.00
Peak level 98.0 % Extraction speed 6.9 X Track quality 100.0 % Test CRC BF900D3E Copy CRC BF900D3E Accurately ripped (confidence 2) [34E19F58] (AR v2) Copy OK
Track 36
Filename F:\torrent\Monkey Shines_David Shire\score\36. David Shire - Surgery.wav
Pre-gap length 0:00:02.00
Peak level 95.4 % Extraction speed 7.2 X Track quality 100.0 % Test CRC D514ED0A Copy CRC D514ED0A Accurately ripped (confidence 2) [4D654B30] (AR v2) Copy OK
Track 37
Filename F:\torrent\Monkey Shines_David Shire\score\37. David Shire - Let's Go Fishing.wav
Pre-gap length 0:00:02.00
Peak level 80.3 % Extraction speed 7.4 X Track quality 100.0 % Test CRC 4BA160C3 Copy CRC 4BA160C3 Accurately ripped (confidence 2) [C0F05A16] (AR v2) Copy OK
Track 38
Filename F:\torrent\Monkey Shines_David Shire\score\38. David Shire - Shock Ending (Unused).wav
Pre-gap length 0:00:02.00
Peak level 98.2 % Extraction speed 5.1 X Track quality 100.0 % Test CRC 90AD4D88 Copy CRC 90AD4D88 Accurately ripped (confidence 2) [4F9AC517] (AR v2) Copy OK
Track 39
Filename F:\torrent\Monkey Shines_David Shire\score\39. David Shire - End Credits.wav
Pre-gap length 0:00:02.00
Peak level 32.5 % Extraction speed 8.0 X Track quality 99.9 % Test CRC AB0DD595 Copy CRC AB0DD595 Accurately ripped (confidence 2) [83797A70] (AR v2) Copy OK
Track 40
Filename F:\torrent\Monkey Shines_David Shire\score\40. David Shire - Let's Go Fishing (Alternate Ending) - bonus track.wav
Pre-gap length 0:00:03.00
Peak level 77.4 % Extraction speed 4.9 X Track quality 99.8 % Test CRC 969A21FD Copy CRC 969A21FD Accurately ripped (confidence 2) [AFFFF73C] (AR v2) Copy OK
All tracks accurately ripped
No errors occurred
End of status report
---- CUETools DB Plugin V2.1.6
[CTDB TOCID: v1JPYJlGNid8TuszRe_SStBrcO0-] foundSubmit result: v1JPYJlGNid8TuszRe_SStBrcO0- has been confirmedTrack | CTDB Status 1 | (8/8) Accurately ripped 2 | (8/8) Accurately ripped 3 | (8/8) Accurately ripped 4 | (8/8) Accurately ripped 5 | (8/8) Accurately ripped 6 | (8/8) Accurately ripped 7 | (8/8) Accurately ripped 8 | (8/8) Accurately ripped 9 | (8/8) Accurately ripped 10 | (8/8) Accurately ripped 11 | (8/8) Accurately ripped 12 | (8/8) Accurately ripped 13 | (8/8) Accurately ripped 14 | (8/8) Accurately ripped 15 | (8/8) Accurately ripped 16 | (8/8) Accurately ripped 17 | (8/8) Accurately ripped 18 | (8/8) Accurately ripped 19 | (8/8) Accurately ripped 20 | (8/8) Accurately ripped 21 | (8/8) Accurately ripped 22 | (8/8) Accurately ripped 23 | (8/8) Accurately ripped 24 | (8/8) Accurately ripped 25 | (8/8) Accurately ripped 26 | (8/8) Accurately ripped 27 | (8/8) Accurately ripped 28 | (8/8) Accurately ripped 29 | (8/8) Accurately ripped 30 | (8/8) Accurately ripped 31 | (8/8) Accurately ripped 32 | (8/8) Accurately ripped 33 | (8/8) Accurately ripped 34 | (8/8) Accurately ripped 35 | (8/8) Accurately ripped 36 | (8/8) Accurately ripped 37 | (8/8) Accurately ripped 38 | (8/8) Accurately ripped 39 | (8/8) Accurately ripped 40 | (8/8) Accurately ripped
==== Log checksum F0D82E7B2A5010A7C11AA36BBC1D465FC4992C4FF2937AF3EE4AC89989A057AE ====

Содержание индексной карты (.CUE)

REM GENRE SoundtrackREM DATE 2018REM DISCID 630F5D28REM COMMENT "ExactAudioCopy v1.3"PERFORMER "David Shire"TITLE "Monkey Shines"REM COMPOSER ""FILE "01. David Shire - Prologue , Main Title.wav" WAVE TRACK 01 AUDIO TITLE "Prologue / Main Title" PERFORMER "David Shire" REM COMPOSER "" INDEX 01 00:00:00 TRACK 02 AUDIO TITLE "Operating Room" PERFORMER "David Shire" REM COMPOSER "" INDEX 00 03:35:44FILE "02. David Shire - Operating Room.wav" WAVE INDEX 01 00:00:00 TRACK 03 AUDIO TITLE "Homecoming" PERFORMER "David Shire" REM COMPOSER "" INDEX 00 01:10:67FILE "03. David Shire - Homecoming.wav" WAVE INDEX 01 00:00:00 TRACK 04 AUDIO TITLE "Geoff's Lab" PERFORMER "David Shire" REM COMPOSER "" INDEX 00 01:08:26FILE "04. David Shire - Geoff's Lab.wav" WAVE INDEX 01 00:00:00 TRACK 05 AUDIO TITLE "Geoff & Allan / Geoff to Burbage" PERFORMER "David Shire" REM COMPOSER "" INDEX 00 01:08:67FILE "05. David Shire - Geoff & Allan , Geoff to Burbage.wav" WAVE INDEX 01 00:00:00 TRACK 06 AUDIO TITLE "Suicide Attempt" PERFORMER "David Shire" REM COMPOSER "" INDEX 00 00:57:21FILE "06. David Shire - Suicide Attempt.wav" WAVE INDEX 01 00:00:00 TRACK 07 AUDIO TITLE "Melanie" PERFORMER "David Shire" REM COMPOSER "" INDEX 00 00:40:34FILE "07. David Shire - Melanie.wav" WAVE INDEX 01 00:00:00 TRACK 08 AUDIO TITLE "Fetch Montage" PERFORMER "David Shire" REM COMPOSER "" INDEX 00 01:14:51FILE "08. David Shire - Fetch Montage.wav" WAVE INDEX 01 00:00:00 TRACK 09 AUDIO TITLE "Shaving Scene" PERFORMER "David Shire" REM COMPOSER "" INDEX 00 01:59:01FILE "09. David Shire - Shaving Scene.wav" WAVE INDEX 01 00:00:00 TRACK 10 AUDIO TITLE "Fishing" PERFORMER "David Shire" REM COMPOSER "" INDEX 00 01:33:49FILE "10. David Shire - Fishing.wav" WAVE INDEX 01 00:00:00 TRACK 11 AUDIO TITLE "Is That You, Burbage? / Ella Freaks" PERFORMER "David Shire" REM COMPOSER "" INDEX 00 00:59:63FILE "11. David Shire - Is That You, Burbage , Ella Freaks.wav" WAVE INDEX 01 00:00:00 TRACK 12 AUDIO TITLE "Drowning Rat / Parakeet Attack" PERFORMER "David Shire" REM COMPOSER "" INDEX 00 01:28:56FILE "12. David Shire - Drowning Rat , Parakeet Attack.wav" WAVE INDEX 01 00:00:00 TRACK 13 AUDIO TITLE "Get Rid of That Bird" PERFORMER "David Shire" REM COMPOSER "" INDEX 00 01:07:14FILE "13. David Shire - Get Rid of That Bird.wav" WAVE INDEX 01 00:00:00 TRACK 14 AUDIO TITLE "Science Is Measurement" PERFORMER "David Shire" REM COMPOSER "" INDEX 00 01:59:72FILE "14. David Shire - Science Is Measurement.wav" WAVE INDEX 01 00:00:00 TRACK 15 AUDIO TITLE "He Deserved to Die / Monkey Vision I" PERFORMER "David Shire" REM COMPOSER "" INDEX 00 01:41:15FILE "15. David Shire - He Deserved to Die , Monkey Vision I.wav" WAVE INDEX 01 00:00:00 TRACK 16 AUDIO TITLE "Geoff in Attic / That Son of a Bitch" PERFORMER "David Shire" REM COMPOSER "" INDEX 00 01:37:70FILE "16. David Shire - Geoff in Attic , That Son of a Bitch.wav" WAVE INDEX 01 00:00:00 TRACK 17 AUDIO TITLE "Blood Kiss" PERFORMER "David Shire" REM COMPOSER "" INDEX 00 02:42:07FILE "17. David Shire - Blood Kiss.wav" WAVE INDEX 01 00:00:00 TRACK 18 AUDIO TITLE "There Was a Fire / Ella Dragged Away" PERFORMER "David Shire" REM COMPOSER "" INDEX 00 01:34:01FILE "18. David Shire - There Was a Fire , Ella Dragged Away.wav" WAVE INDEX 01 00:00:00 TRACK 19 AUDIO TITLE "Campground / Bedtime" PERFORMER "David Shire" REM COMPOSER "" INDEX 00 00:53:34FILE "19. David Shire - Campground , Bedtime.wav" WAVE INDEX 01 00:00:00 TRACK 20 AUDIO TITLE "You Want It / Let's Tune In" PERFORMER "David Shire" REM COMPOSER "" INDEX 00 03:19:14FILE "20. David Shire - You Want It , Let's Tune In.wav" WAVE INDEX 01 00:00:00 TRACK 21 AUDIO TITLE "Monkey Vision II" PERFORMER "David Shire" REM COMPOSER "" INDEX 00 03:00:60FILE "21. David Shire - Monkey Vision II.wav" WAVE INDEX 01 00:00:00 TRACK 22 AUDIO TITLE "She's Filling Me Up" PERFORMER "David Shire" REM COMPOSER "" INDEX 00 00:54:14FILE "22. David Shire - She's Filling Me Up.wav" WAVE INDEX 01 00:00:00 TRACK 23 AUDIO TITLE "Mother, Mother" PERFORMER "David Shire" REM COMPOSER "" INDEX 00 01:02:50FILE "23. David Shire - Mother, Mother.wav" WAVE INDEX 01 00:00:00 TRACK 24 AUDIO TITLE "Lab Attack" PERFORMER "David Shire" REM COMPOSER "" INDEX 00 01:48:57FILE "24. David Shire - Lab Attack.wav" WAVE INDEX 01 00:00:00 TRACK 25 AUDIO TITLE "Mother Snuffer" PERFORMER "David Shire" REM COMPOSER "" INDEX 00 00:40:63FILE "25. David Shire - Mother Snuffer.wav" WAVE INDEX 01 00:00:00 TRACK 26 AUDIO TITLE "Geoff Looks For Mom / I Killed Them" PERFORMER "David Shire" REM COMPOSER "" INDEX 00 01:46:19FILE "26. David Shire - Geoff Looks For Mom , I Killed Them.wav" WAVE INDEX 01 00:00:00 TRACK 27 AUDIO TITLE "Ella Attacks Geoff" PERFORMER "David Shire" REM COMPOSER "" INDEX 00 01:42:21FILE "27. David Shire - Ella Attacks Geoff.wav" WAVE INDEX 01 00:00:00 TRACK 28 AUDIO TITLE "Answer the Telephone" PERFORMER "David Shire" REM COMPOSER "" INDEX 00 01:41:39FILE "28. David Shire - Answer the Telephone.wav" WAVE INDEX 01 00:00:00 TRACK 29 AUDIO TITLE "Geoff's Death" PERFORMER "David Shire" REM COMPOSER "" INDEX 00 01:59:59FILE "29. David Shire - Geoff's Death.wav" WAVE INDEX 01 00:00:00 TRACK 30 AUDIO TITLE "Lights Out" PERFORMER "David Shire" REM COMPOSER "" INDEX 00 02:12:01FILE "30. David Shire - Lights Out.wav" WAVE INDEX 01 00:00:00 TRACK 31 AUDIO TITLE "Let's Have Music" PERFORMER "David Shire" REM COMPOSER "" INDEX 00 01:08:48FILE "31. David Shire - Let's Have Music.wav" WAVE INDEX 01 00:00:00 TRACK 32 AUDIO TITLE "Force Feeding" PERFORMER "David Shire" REM COMPOSER "" INDEX 00 01:52:34FILE "32. David Shire - Force Feeding.wav" WAVE INDEX 01 00:00:00 TRACK 33 AUDIO TITLE "Monkey Vision Ultimo" PERFORMER "David Shire" REM COMPOSER "" INDEX 00 01:34:54FILE "33. David Shire - Monkey Vision Ultimo.wav" WAVE INDEX 01 00:00:00 TRACK 34 AUDIO TITLE "Allan's Agony" PERFORMER "David Shire" REM COMPOSER "" INDEX 00 00:36:10FILE "34. David Shire - Allan's Agony.wav" WAVE INDEX 01 00:00:00 TRACK 35 AUDIO TITLE "Liebestod" PERFORMER "David Shire" REM COMPOSER "" INDEX 00 03:56:14FILE "35. David Shire - Liebestod.wav" WAVE INDEX 01 00:00:00 TRACK 36 AUDIO TITLE "Surgery" PERFORMER "David Shire" REM COMPOSER "" INDEX 00 00:53:23FILE "36. David Shire - Surgery.wav" WAVE INDEX 01 00:00:00 TRACK 37 AUDIO TITLE "Let's Go Fishing" PERFORMER "David Shire" REM COMPOSER "" INDEX 00 00:59:20FILE "37. David Shire - Let's Go Fishing.wav" WAVE INDEX 01 00:00:00 TRACK 38 AUDIO TITLE "Shock Ending (Unused)" PERFORMER "David Shire" REM COMPOSER "" INDEX 00 00:59:66FILE "38. David Shire - Shock Ending (Unused).wav" WAVE INDEX 01 00:00:00 TRACK 39 AUDIO TITLE "End Credits" PERFORMER "David Shire" REM COMPOSER "" INDEX 00 00:26:30FILE "39. David Shire - End Credits.wav" WAVE INDEX 01 00:00:00 TRACK 40 AUDIO TITLE "Let's Go Fishing (Alternate Ending) - bonus track" PERFORMER "David Shire" REM COMPOSER "" INDEX 00 02:59:21FILE "40. David Shire - Let's Go Fishing (Alternate Ending) - bonus track.wav" WAVE INDEX 01 00:00:00


[torrentc.info]_t_5596255.torrent
Торрент: Зарегистрирован ·  [ 2018-08-09 20:14 ] ·  a446c55051677601ebe3322dad98b32b7c1c9ba5

21 KB

Статус: проверено
Скачан: 0 раз
Размер: 426 MB
Оценка: 
(Голосов: 0)
Сказали спасибо: 0  Спасибо
Похожие темы
[Профиль]    [ЛС]
Показать сообщения:    
Ответить на тему

Текущее время: Сегодня 03:15

Часовой пояс: GMT + 7



Вы не можете начинать темы
Вы не можете отвечать на сообщения
Вы не можете редактировать свои сообщения
Вы не можете удалять свои сообщения
Вы не можете голосовать в опросах
Вы не можете прикреплять файлы к сообщениям
Вы можете скачивать файлы